<?xml version="1.0" standalone="no"?>
<!DOCTYPE svg PUBLIC "-//W3C//DTD SVG 1.1//EN" "http://www.w3.org/Graphics/SVG/1.1/DTD/svg11.dtd" >
<svg xmlns="http://www.w3.org/2000/svg" xmlns:xlink="http://www.w3.org/1999/xlink" version="1.1">
<metadata>
Created by FontForge 20150318 at Fri Sep 18 12:20:32 2015
 By uniteet7
Digitized data copyright (c) 2012-2015, The Mozilla Foundation and Telefonica S.A.
</metadata>
<defs>
<font id="FiraSans-Light" horiz-adv-x="560" >
  <font-face 
    font-family="Fira Sans Light"
    font-weight="300"
    font-stretch="normal"
    units-per-em="1000"
    panose-1="2 11 4 3 5 0 0 2 0 4"
    ascent="800"
    descent="-200"
    x-height="523"
    cap-height="685"
    bbox="-738 -350 1360 1057"
    underline-thickness="50"
    underline-position="-50"
    unicode-range="U+000D-1F310"
  />
<missing-glyph horiz-adv-x="666" 
d="M543 -350h-420v1400h420v-1400zM178 998v-1296h311v1296h-311zM409.5 419q25.5 -32 25.5 -83q0 -53 -22.5 -82t-72.5 -36v-45q0 -11 -7.5 -17.5t-17.5 -6.5t-17.5 6.5t-7.5 17.5v84q53 3 72 19.5t19 57.5q0 33 -13 51t-48 18q-29 0 -52 -11q-8 -3 -13 -3q-11 0 -17.5 6.5
t-6.5 16.5q0 19 29.5 29t63.5 10q60 0 85.5 -32zM340 110q10 -10 10 -25q0 -16 -10 -26.5t-25 -10.5t-25 10.5t-10 26.5q0 15 10 25t25 10t25 -10z" />
    <glyph glyph-name="fi" unicode="fi" horiz-adv-x="563" 
d="M407 706l-21 -42q-64 30 -124 30q-51 0 -74 -20.5t-23 -68.5v-82h292v-523h-58v476h-234v-476h-58v476h-86v47h86v85q0 64 39.5 99.5t113.5 35.5q78 0 147 -37z" />
    <glyph glyph-name="fl" unicode="fl" horiz-adv-x="583" 
d="M552 3q-31 -14 -62 -14q-43 0 -66.5 25t-23.5 76v582q-36 12 -66.5 17.5t-66.5 5.5q-53 0 -77.5 -21t-24.5 -67v-84h138l-7 -47h-131v-476h-58v476h-86v47h86v86q0 63 40.5 98.5t115.5 35.5q38 0 68.5 -5.5t68.5 -17.5v1l58 7v-638q0 -26 10 -38.5t33 -12.5q20 0 35 7z
" />
    <glyph glyph-name=".notdef" horiz-adv-x="666" 
d="M543 -350h-420v1400h420v-1400zM178 998v-1296h311v1296h-311zM409.5 419q25.5 -32 25.5 -83q0 -53 -22.5 -82t-72.5 -36v-45q0 -11 -7.5 -17.5t-17.5 -6.5t-17.5 6.5t-7.5 17.5v84q53 3 72 19.5t19 57.5q0 33 -13 51t-48 18q-29 0 -52 -11q-8 -3 -13 -3q-11 0 -17.5 6.5
t-6.5 16.5q0 19 29.5 29t63.5 10q60 0 85.5 -32zM340 110q10 -10 10 -25q0 -16 -10 -26.5t-25 -10.5t-25 10.5t-10 26.5q0 15 10 25t25 10t25 -10z" />
    <glyph glyph-name="null" horiz-adv-x="0" 
 />
    <glyph glyph-name="nonmarkingreturn" unicode="&#xd;" horiz-adv-x="279" 
 />
    <glyph glyph-name="space" unicode=" " horiz-adv-x="279" 
 />
    <glyph glyph-name="A" unicode="A" horiz-adv-x="565" 
d="M425 187h-288l-60 -187h-61l229 685h75l228 -685h-63zM409 238l-127 398l-129 -398h256z" />
    <glyph glyph-name="Aacute" unicode="&#xc1;" horiz-adv-x="565" 
d="M425 187h-288l-60 -187h-61l229 685h75l228 -685h-63zM409 238l-127 398l-129 -398h256zM389 836l-198 -78l-16 34l187 96z" />
    <glyph glyph-name="Abreve" unicode="&#x102;" horiz-adv-x="565" 
d="M425 187h-288l-60 -187h-61l229 685h75l228 -685h-63zM409 238l-127 398l-129 -398h256zM195 793.5q-36 28.5 -43 71.5l40 9q10 -29 33 -45.5t57 -16.5t57.5 16.5t33.5 45.5l40 -9q-7 -43 -43.5 -71.5t-87.5 -28.5t-87 28.5z" />
    <glyph glyph-name="uni1EAE" unicode="&#x1eae;" horiz-adv-x="565" 
d="M282 860l-26 24l108 132l39 -36zM195 767.5q-36 28.5 -43 71.5l40 9q10 -29 33 -45.5t57 -16.5t57.5 16.5t33.5 45.5l40 -9q-7 -43 -43.5 -71.5t-87.5 -28.5t-87 28.5zM425 187h-288l-60 -187h-61l229 685h75l228 -685h-63zM409 238l-127 398l-129 -398h256z" />
    <glyph glyph-name="uni1EB6" unicode="&#x1eb6;" horiz-adv-x="565" 
d="M425 187h-288l-60 -187h-61l229 685h75l228 -685h-63zM409 238l-127 398l-129 -398h256zM195 793.5q-36 28.5 -43 71.5l40 9q10 -29 33 -45.5t57 -16.5t57.5 16.5t33.5 45.5l40 -9q-7 -43 -43.5 -71.5t-87.5 -28.5t-87 28.5zM251 -158q-12 12 -12 30t12 30t32 12
q19 0 31 -12t12 -30t-12 -30t-31 -12q-20 0 -32 12z" />
    <glyph glyph-name="uni1EB0" unicode="&#x1eb0;" horiz-adv-x="565" 
d="M291 860l-120 120l38 36l108 -132zM195 767.5q-36 28.5 -43 71.5l40 9q10 -29 33 -45.5t57 -16.5t57.5 16.5t33.5 45.5l40 -9q-7 -43 -43.5 -71.5t-87.5 -28.5t-87 28.5zM425 187h-288l-60 -187h-61l229 685h75l228 -685h-63zM409 238l-127 398l-129 -398h256z" />
    <glyph glyph-name="uni1EB2" unicode="&#x1eb2;" horiz-adv-x="565" 
d="M222 985l-16 36q36 21 81 21q43 0 68 -21.5t25 -57.5q0 -67 -75 -78v-46h-48v73q35 2 52.5 12.5t17.5 34.5q0 19 -12.5 29.5t-34.5 10.5q-30 0 -58 -14zM195 767.5q-36 28.5 -43 71.5l40 9q10 -29 33 -45.5t57 -16.5t57.5 16.5t33.5 45.5l40 -9q-7 -43 -43.5 -71.5
t-87.5 -28.5t-87 28.5zM425 187h-288l-60 -187h-61l229 685h75l228 -685h-63zM409 238l-127 398l-129 -398h256z" />
    <glyph glyph-name="uni1EB4" unicode="&#x1eb4;" horiz-adv-x="565" 
d="M196.5 926.5q-12.5 -9.5 -26.5 -30.5l-36 18q37 68 92 68q17 0 31.5 -6t32.5 -18q18 -11 29 -16t24 -5q16 0 28.5 10t27.5 33l36 -18q-35 -72 -92 -72q-18 0 -33 6.5t-37 19.5q-16 10 -26.5 15t-20.5 5q-17 0 -29.5 -9.5zM339.5 802.5q23.5 16.5 33.5 45.5l40 -9
q-7 -43 -43.5 -71.5t-87.5 -28.5t-87 28.5t-43 71.5l40 9q10 -29 33 -45.5t57 -16.5t57.5 16.5zM425 187h-288l-60 -187h-61l229 685h75l228 -685h-63zM409 238l-127 398l-129 -398h256z" />
    <glyph glyph-name="uni01CD" unicode="&#x1cd;" horiz-adv-x="565" 
d="M425 187h-288l-60 -187h-61l229 685h75l228 -685h-63zM409 238l-127 398l-129 -398h256zM430 857l-129 -101h-36l-130 101l26 31l122 -80l121 80z" />
    <glyph glyph-name="Acircumflex" unicode="&#xc2;" horiz-adv-x="565" 
d="M425 187h-288l-60 -187h-61l229 685h75l228 -685h-63zM409 238l-127 398l-129 -398h256zM282 842l-122 -80l-26 30l130 102h36l129 -102l-26 -30z" />
    <glyph glyph-name="uni1EA4" unicode="&#x1ea4;" horiz-adv-x="565" 
d="M397 833l-26 24l108 132l39 -36zM160 727l-26 30l130 102h36l129 -102l-26 -30l-121 80zM425 187h-288l-60 -187h-61l229 685h75l228 -685h-63zM409 238l-127 398l-129 -398h256z" />
    <glyph glyph-name="uni1EAC" unicode="&#x1eac;" horiz-adv-x="565" 
d="M425 187h-288l-60 -187h-61l229 685h75l228 -685h-63zM409 238l-127 398l-129 -398h256zM282 842l-122 -80l-26 30l130 102h36l129 -102l-26 -30zM251 -158q-12 12 -12 30t12 30t32 12q19 0 31 -12t12 -30t-12 -30t-31 -12q-20 0 -32 12z" />
    <glyph glyph-name="uni1EA6" unicode="&#x1ea6;" horiz-adv-x="565" 
d="M171 833l-120 120l38 36l108 -132zM134 757l130 102h36l129 -102l-26 -30l-121 80l-122 -80zM425 187h-288l-60 -187h-61l229 685h75l228 -685h-63zM409 238l-127 398l-129 -398h256z" />
    <glyph glyph-name="uni1EA8" unicode="&#x1ea8;" horiz-adv-x="565" 
d="M350 959l-16 36q36 21 81 21q43 0 68 -21.5t25 -57.5q0 -67 -75 -78v-46h-48v73q35 2 52.5 12.5t17.5 34.5q0 19 -12.5 29.5t-34.5 10.5q-30 0 -58 -14zM160 727l-26 30l130 102h36l129 -102l-26 -30l-121 80zM425 187h-288l-60 -187h-61l229 685h75l228 -685h-63z
M409 238l-127 398l-129 -398h256z" />
    <glyph glyph-name="uni1EAA" unicode="&#x1eaa;" horiz-adv-x="565" 
d="M193.5 932.5q-12.5 -9.5 -26.5 -30.5l-36 18q37 68 92 68q17 0 31.5 -6t32.5 -18q18 -11 29 -16t24 -5q16 0 28.5 10t27.5 33l36 -18q-35 -72 -92 -72q-18 0 -33 6.5t-37 19.5q-16 10 -26.5 15t-20.5 5q-17 0 -29.5 -9.5zM299 859l129 -102l-26 -30l-121 80l-122 -80
l-26 30l130 102h36zM425 187h-288l-60 -187h-61l229 685h75l228 -685h-63zM409 238l-127 398l-129 -398h256z" />
    <glyph glyph-name="uni0200" unicode="&#x200;" horiz-adv-x="565" 
d="M425 187h-288l-60 -187h-61l229 685h75l228 -685h-63zM409 238l-127 398l-129 -398h256zM253 822l-38 -18l-93 142l52 27zM374 826l-38 -17l-84 136l52 28z" />
    <glyph glyph-name="Adieresis" unicode="&#xc4;" horiz-adv-x="565" 
d="M425 187h-288l-60 -187h-61l229 685h75l228 -685h-63zM409 238l-127 398l-129 -398h256zM216.5 856.5q11.5 -11.5 11.5 -28.5t-11.5 -28t-28.5 -11t-28.5 11t-11.5 28t11.5 28.5t28.5 11.5t28.5 -11.5zM405.5 856.5q11.5 -11.5 11.5 -28.5t-11.5 -28t-28.5 -11t-28.5 11
t-11.5 28t11.5 28.5t28.5 11.5t28.5 -11.5z" />
    <glyph glyph-name="uni01DE" unicode="&#x1de;" horiz-adv-x="565" 
d="M405 878h-241v47h241v-47zM159.5 755q-11.5 11 -11.5 28t11.5 28.5t28.5 11.5t28.5 -11.5t11.5 -28.5t-11.5 -28t-28.5 -11t-28.5 11zM348.5 811.5q11.5 11.5 28.5 11.5t28.5 -11.5t11.5 -28.5t-11.5 -28t-28.5 -11t-28.5 11t-11.5 28t11.5 28.5zM425 187h-288l-60 -187
h-61l229 685h75l228 -685h-63zM409 238l-127 398l-129 -398h256z" />
    <glyph glyph-name="uni0226" unicode="&#x226;" horiz-adv-x="565" 
d="M425 187h-288l-60 -187h-61l229 685h75l228 -685h-63zM409 238l-127 398l-129 -398h256zM314 867q12 -12 12 -30t-12 -30t-32 -12q-19 0 -31 12t-12 30t12 30t31 12q20 0 32 -12z" />
    <glyph glyph-name="uni1EA0" unicode="&#x1ea0;" horiz-adv-x="565" 
d="M425 187h-288l-60 -187h-61l229 685h75l228 -685h-63zM409 238l-127 398l-129 -398h256zM251 -158q-12 12 -12 30t12 30t32 12q19 0 31 -12t12 -30t-12 -30t-31 -12q-20 0 -32 12z" />
    <glyph glyph-name="uni01E0" unicode="&#x1e0;" horiz-adv-x="565" 
d="M405 878h-241v47h241v-47zM252 814q12 12 31 12q20 0 32 -12t12 -30t-12 -30t-32 -12q-19 0 -31 12t-12 30t12 30zM425 187h-288l-60 -187h-61l229 685h75l228 -685h-63zM409 238l-127 398l-129 -398h256z" />
    <glyph glyph-name="Agrave" unicode="&#xc0;" horiz-adv-x="565" 
d="M425 187h-288l-60 -187h-61l229 685h75l228 -685h-63zM409 238l-127 398l-129 -398h256zM385 792l-16 -34l-198 78l26 52z" />
    <glyph glyph-name="uni1EA2" unicode="&#x1ea2;" horiz-adv-x="565" 
d="M425 187h-288l-60 -187h-61l229 685h75l228 -685h-63zM409 238l-127 398l-129 -398h256zM255 847q35 2 52.5 12.5t17.5 34.5q0 19 -12.5 29.5t-34.5 10.5q-30 0 -58 -14l-16 36q36 21 81 21q43 0 68 -21.5t25 -57.5q0 -67 -75 -78v-46h-48v73z" />
    <glyph glyph-name="uni0202" unicode="&#x202;" horiz-adv-x="565" 
d="M425 187h-288l-60 -187h-61l229 685h75l228 -685h-63zM409 238l-127 398l-129 -398h256zM370 874q36 -30 43 -80l-40 -9q-20 72 -91 72q-70 0 -90 -72l-40 9q7 50 42.5 80t87.5 30t88 -30z" />
    <glyph glyph-name="uni2C6D" unicode="&#x2c6d;" horiz-adv-x="676" 
d="M571.5 66.5q10.5 -16.5 36.5 -27.5l-19 -47q-40 11 -59.5 30t-25.5 53q-68 -86 -175 -86q-74 0 -134 38.5t-94.5 114.5t-34.5 184q0 117 35 200.5t96.5 126.5t138.5 43q50 0 92.5 -19.5t74.5 -55.5l5 64h53v-563q0 -39 10.5 -55.5zM427 62.5q41 22.5 74 65.5v439
q-62 78 -160 78q-97 0 -154.5 -80t-57.5 -239q0 -96 27 -160t73 -95t104 -31q53 0 94 22.5z" />
    <glyph glyph-name="Amacron" unicode="&#x100;" horiz-adv-x="565" 
d="M425 187h-288l-60 -187h-61l229 685h75l228 -685h-63zM409 238l-127 398l-129 -398h256zM162 802v47h241v-47h-241z" />
    <glyph glyph-name="Aogonek" unicode="&#x104;" horiz-adv-x="565" 
d="M436.5 -56.5q-27.5 -26.5 -27.5 -61.5q0 -24 15 -38t47 -14q27 0 59 7l-6 -48q-35 -7 -58 -7q-53 0 -82 25.5t-29 66.5q0 44 31 77t96 60l-57 176h-288l-60 -187h-61l229 685h75l228 -685h-17q-67 -30 -94.5 -56.5zM409 238l-127 398l-129 -398h256z" />
    <glyph glyph-name="Aring" unicode="&#xc5;" horiz-adv-x="565" 
d="M425 187h-288l-60 -187h-61l229 685h75l228 -685h-63zM409 238l-127 398l-129 -398h256zM353.5 920.5q27.5 -26.5 27.5 -67.5t-27.5 -67.5t-70.5 -26.5q-44 0 -71.5 26.5t-27.5 67.5t27.5 67.5t71.5 26.5q43 0 70.5 -26.5zM241.5 895.5q-14.5 -15.5 -14.5 -42.5
q0 -28 14.5 -43t41.5 -15q26 0 40.5 15t14.5 43q0 27 -14.5 42.5t-40.5 15.5q-27 0 -41.5 -15.5z" />
    <glyph glyph-name="Aringacute" unicode="&#x1fa;" horiz-adv-x="565" 
d="M193 927l-16 34l187 96l27 -52zM211.5 889.5q27.5 26.5 71.5 26.5q43 0 70.5 -26.5t27.5 -67.5t-27.5 -67.5t-70.5 -26.5q-44 0 -71.5 26.5t-27.5 67.5t27.5 67.5zM323.5 864.5q-14.5 15.5 -40.5 15.5q-27 0 -41.5 -15.5t-14.5 -42.5q0 -28 14.5 -43t41.5 -15
q26 0 40.5 15t14.5 43q0 27 -14.5 42.5zM425 187h-288l-60 -187h-61l229 685h75l228 -685h-63zM409 238l-127 398l-129 -398h256z" />
    <glyph glyph-name="uni023A" unicode="&#x23a;" horiz-adv-x="565" 
d="M427 187h-156l-67 -257l-33 8l65 249h-100l-61 -187h-59l229 685h75l27 -80l36 140l33 -9l-50 -189l182 -547h-62zM249 237l73 276l-40 127l-130 -403h97zM411 237l-70 217l-57 -217h127z" />
    <glyph glyph-name="Atilde" unicode="&#xc3;" horiz-adv-x="565" 
d="M425 187h-288l-60 -187h-61l229 685h75l228 -685h-63zM409 238l-127 398l-129 -398h256zM308 798.5q-15 6.5 -37 19.5q-16 10 -26.5 15t-20.5 5q-17 0 -29.5 -9.5t-26.5 -30.5l-36 18q37 68 92 68q17 0 31.5 -6t32.5 -18q18 -11 29 -16t24 -5q16 0 28.5 10t27.5 33
l36 -18q-35 -72 -92 -72q-18 0 -33 6.5z" />
    <glyph glyph-name="AE" unicode="&#xc6;" horiz-adv-x="784" 
d="M737 50v-50h-276l-46 184h-285l-70 -184h-60l267 685h423l-7 -50h-325l66 -256h258v-49h-245l72 -280h228zM403 235l-101 402l-153 -402h254z" />
    <glyph glyph-name="AEacute" unicode="&#x1fc;" horiz-adv-x="784" 
d="M737 50v-50h-276l-46 184h-285l-70 -184h-60l267 685h423l-7 -50h-325l66 -256h258v-49h-245l72 -280h228zM403 235l-101 402l-153 -402h254zM563 836l-198 -78l-16 34l187 96z" />
    <glyph glyph-name="uni01E2" unicode="&#x1e2;" horiz-adv-x="784" 
d="M737 50v-50h-276l-46 184h-285l-70 -184h-60l267 685h423l-7 -50h-325l66 -256h258v-49h-245l72 -280h228zM403 235l-101 402l-153 -402h254zM336 802v47h241v-47h-241z" />
    <glyph glyph-name="B" unicode="B" horiz-adv-x="598" 
d="M500 313.5q44 -41.5 44 -123.5q0 -96 -65 -143t-181 -47h-187v685h153q119 0 183.5 -43t64.5 -128q0 -63 -34.5 -102t-91.5 -49q70 -8 114 -49.5zM171 635v-251h138q64 0 103 33.5t39 92.5q0 67 -45.5 96t-135.5 29h-99zM482 190q0 74 -45.5 110t-120.5 36h-145v-286h127
q184 0 184 140z" />
    <glyph glyph-name="uni1E02" unicode="&#x1e02;" horiz-adv-x="598" 
d="M500 313.5q44 -41.5 44 -123.5q0 -96 -65 -143t-181 -47h-187v685h153q119 0 183.5 -43t64.5 -128q0 -63 -34.5 -102t-91.5 -49q70 -8 114 -49.5zM171 635v-251h138q64 0 103 33.5t39 92.5q0 67 -45.5 96t-135.5 29h-99zM482 190q0 74 -45.5 110t-120.5 36h-145v-286h127
q184 0 184 140zM327 867q12 -12 12 -30t-12 -30t-32 -12q-19 0 -31 12t-12 30t12 30t31 12q20 0 32 -12z" />
    <glyph glyph-name="uni1E04" unicode="&#x1e04;" horiz-adv-x="598" 
d="M500 313.5q44 -41.5 44 -123.5q0 -96 -65 -143t-181 -47h-187v685h153q119 0 183.5 -43t64.5 -128q0 -63 -34.5 -102t-91.5 -49q70 -8 114 -49.5zM171 635v-251h138q64 0 103 33.5t39 92.5q0 67 -45.5 96t-135.5 29h-99zM482 190q0 74 -45.5 110t-120.5 36h-145v-286h127
q184 0 184 140zM278 -158q-12 12 -12 30t12 30t32 12q19 0 31 -12t12 -30t-12 -30t-31 -12q-20 0 -32 12z" />
    <glyph glyph-name="uni0181" unicode="&#x181;" horiz-adv-x="658" 
d="M560 313.5q44 -41.5 44 -123.5q0 -96 -65 -143t-181 -47h-187v636h-29q-36 0 -53.5 -17t-17.5 -46q0 -20 5.5 -36t16.5 -39l-42 -22q-18 27 -27 48t-9 50q0 50 34 80.5t97 30.5h26h152q119 0 183.5 -43t64.5 -128q0 -63 -34.5 -102t-91.5 -49q70 -8 114 -49.5zM231 635
v-251h138q64 0 103 33.5t39 92.5q0 67 -45.5 96t-135.5 29h-99zM542 190q0 74 -45.5 110t-120.5 36h-145v-286h127q184 0 184 140z" />
    <glyph glyph-name="uni0181.ss02" horiz-adv-x="569" 
d="M461 367q64 -51 64 -152q0 -109 -66 -162t-180 -53h-168v685h346l-8 -51h-278v-216h110q116 0 180 -51zM416 88.5q46 38.5 46 126.5q0 154 -179 154h-112v-319h116q83 0 129 38.5z" />
    <glyph glyph-name="uni0243" unicode="&#x243;" horiz-adv-x="601" 
d="M503.5 313.5q44.5 -41.5 44.5 -123.5q0 -96 -65 -143t-182 -47h-187v175h-91v47h91v463h153q120 0 184 -42.5t64 -128.5q0 -63 -34.5 -102t-90.5 -49q69 -8 113.5 -49.5zM174 635v-251h138q64 0 103 33.5t39 92.5q0 67 -45.5 96t-135.5 29h-99zM485 190q0 74 -45.5 110
t-120.5 36h-145v-114h175v-47h-175v-125h127q184 0 184 140z" />
    <glyph glyph-name="uni0182" unicode="&#x182;" horiz-adv-x="569" 
d="M461 367q64 -51 64 -152q0 -109 -66 -162t-180 -53h-168v685h346l-8 -51h-278v-216h110q116 0 180 -51zM416 88.5q46 38.5 46 126.5q0 154 -179 154h-112v-319h116q83 0 129 38.5z" />
    <glyph glyph-name="C" unicode="C" horiz-adv-x="550" 
d="M439.5 680.5q39.5 -15.5 79.5 -47.5l-32 -40q-35 28 -67 40t-73 12q-97 0 -157.5 -74t-60.5 -228q0 -100 28 -168t76.5 -100.5t110.5 -32.5q48 0 81.5 14.5t69.5 43.5l32 -40q-73 -71 -185 -71q-80 0 -142.5 41t-98 120.5t-35.5 192.5t37 192.5t99.5 120t140.5 40.5
q57 0 96.5 -15.5z" />
    <glyph glyph-name="Cacute" unicode="&#x106;" horiz-adv-x="550" 
d="M439.5 680.5q39.5 -15.5 79.5 -47.5l-32 -40q-35 28 -67 40t-73 12q-97 0 -157.5 -74t-60.5 -228q0 -100 28 -168t76.5 -100.5t110.5 -32.5q48 0 81.5 14.5t69.5 43.5l32 -40q-73 -71 -185 -71q-80 0 -142.5 41t-98 120.5t-35.5 192.5t37 192.5t99.5 120t140.5 40.5
q57 0 96.5 -15.5zM451 836l-198 -78l-16 34l187 96z" />
    <glyph glyph-name="Cacute.loclPLK" horiz-adv-x="550" 
d="M439.5 680.5q39.5 -15.5 79.5 -47.5l-32 -40q-35 28 -67 40t-73 12q-97 0 -157.5 -74t-60.5 -228q0 -100 28 -168t76.5 -100.5t110.5 -32.5q48 0 81.5 14.5t69.5 43.5l32 -40q-73 -71 -185 -71q-80 0 -142.5 41t-98 120.5t-35.5 192.5t37 192.5t99.5 120t140.5 40.5
q57 0 96.5 -15.5zM454 877l-120 -145l-30 19l102 157z" />
    <glyph glyph-name="Ccaron" unicode="&#x10c;" horiz-adv-x="550" 
d="M439.5 680.5q39.5 -15.5 79.5 -47.5l-32 -40q-35 28 -67 40t-73 12q-97 0 -157.5 -74t-60.5 -228q0 -100 28 -168t76.5 -100.5t110.5 -32.5q48 0 81.5 14.5t69.5 43.5l32 -40q-73 -71 -185 -71q-80 0 -142.5 41t-98 120.5t-35.5 192.5t37 192.5t99.5 120t140.5 40.5
q57 0 96.5 -15.5zM491 857l-129 -101h-36l-130 101l26 31l122 -80l121 80z" />
    <glyph glyph-name="Ccedilla" unicode="&#xc7;" horiz-adv-x="550" 
d="M428.5 -88q22.5 -20 22.5 -52q0 -41 -30 -64t-75 -23q-48 0 -80 21l18 36q27 -15 61 -15q24 0 39.5 11t15.5 34q0 22 -21.5 33t-67.5 11l8 86q-74 6 -131.5 48.5t-89.5 120t-32 184.5q0 113 37 192.5t99.5 120t140.5 40.5q57 0 96.5 -15.5t79.5 -47.5l-32 -40
q-35 28 -67 40t-73 12q-97 0 -157.5 -74t-60.5 -228q0 -100 28 -168t76.5 -100.5t110.5 -32.5q48 0 81.5 14.5t69.5 43.5l32 -40q-70 -66 -168 -70v-54q47 -4 69.5 -24z" />
    <glyph glyph-name="Ccircumflex" unicode="&#x108;" horiz-adv-x="550" 
d="M439.5 680.5q39.5 -15.5 79.5 -47.5l-32 -40q-35 28 -67 40t-73 12q-97 0 -157.5 -74t-60.5 -228q0 -100 28 -168t76.5 -100.5t110.5 -32.5q48 0 81.5 14.5t69.5 43.5l32 -40q-73 -71 -185 -71q-80 0 -142.5 41t-98 120.5t-35.5 192.5t37 192.5t99.5 120t140.5 40.5
q57 0 96.5 -15.5zM344 842l-122 -80l-26 30l130 102h36l129 -102l-26 -30z" />
    <glyph glyph-name="Cdotaccent" unicode="&#x10a;" horiz-adv-x="550" 
d="M439.5 680.5q39.5 -15.5 79.5 -47.5l-32 -40q-35 28 -67 40t-73 12q-97 0 -157.5 -74t-60.5 -228q0 -100 28 -168t76.5 -100.5t110.5 -32.5q48 0 81.5 14.5t69.5 43.5l32 -40q-73 -71 -185 -71q-80 0 -142.5 41t-98 120.5t-35.5 192.5t37 192.5t99.5 120t140.5 40.5
q57 0 96.5 -15.5zM376 867q12 -12 12 -30t-12 -30t-32 -12q-19 0 -31 12t-12 30t12 30t31 12q20 0 32 -12z" />
    <glyph glyph-name="uni0187" unicode="&#x187;" horiz-adv-x="550" 
d="M688 790l-24 -37q-18 11 -35.5 17t-40.5 6q-69 0 -69 -83v-60l-28 -34q-37 24 -70.5 35t-73.5 11q-97 0 -157.5 -74t-60.5 -228q0 -100 28 -168t76.5 -100.5t110.5 -32.5q48 0 81.5 14.5t69.5 43.5l32 -40q-73 -71 -185 -71q-80 0 -142.5 41t-98 120.5t-35.5 192.5
t37 192.5t99.5 120t140.5 40.5q70 0 118 -29v23q0 65 33 99.5t92 34.5q58 0 102 -34z" />
    <glyph glyph-name="uni023B" unicode="&#x23b;" horiz-adv-x="550" 
d="M342 -11q-45 0 -87 14l-19 -73l-33 8l20 78q-73 37 -115 120.5t-42 206.5q0 113 37 192.5t99.5 120t140.5 40.5q29 0 59 -5l14 54l32 -9l-14 -53q41 -14 85 -50l-32 -40q-36 28 -66 39l-152 -576q32 -14 75 -14q48 0 81.5 14.5t69.5 43.5l32 -40q-73 -71 -185 -71z
M158 173q29 -68 80 -101l151 569q-17 4 -42 4q-97 0 -157.5 -74t-60.5 -228q0 -102 29 -170z" />
    <glyph glyph-name="D" unicode="D" horiz-adv-x="632" 
d="M477.5 613q88.5 -72 88.5 -265t-89.5 -270.5t-218.5 -77.5h-147v685h136q142 0 230.5 -72zM171 635v-585h91q241 0 241 298q0 118 -35 181t-88.5 84.5t-124.5 21.5h-84z" />
    <glyph glyph-name="uni01F1" unicode="&#x1f1;" horiz-adv-x="1138" 
d="M477.5 613q88.5 -72 88.5 -265t-89.5 -270.5t-218.5 -77.5h-147v685h136q142 0 230.5 -72zM171 635v-585h91q241 0 241 298q0 118 -35 181t-88.5 84.5t-124.5 21.5h-84zM1090 636l-364 -583h358l-8 -53h-419v50l367 583h-329v52h395v-49z" />
    <glyph glyph-name="uni01C4" unicode="&#x1c4;" horiz-adv-x="1138" 
d="M477.5 613q88.5 -72 88.5 -265t-89.5 -270.5t-218.5 -77.5h-147v685h136q142 0 230.5 -72zM171 635v-585h91q241 0 241 298q0 118 -35 181t-88.5 84.5t-124.5 21.5h-84zM1090 636l-364 -583h358l-8 -53h-419v50l367 583h-329v52h395v-49zM1032 857l-129 -101h-36
l-130 101l26 31l122 -80l121 80z" />
    <glyph glyph-name="uni0189" unicode="&#x189;" horiz-adv-x="637" 
d="M482.5 613q88.5 -72 88.5 -265t-89.5 -270.5t-218.5 -77.5h-147v328h-93v48h93v309h136q142 0 230.5 -72zM508 348q0 118 -35 181t-89 84.5t-125 21.5h-83v-259h175v-48h-175v-278h90q242 0 242 298z" />
    <glyph glyph-name="Eth" unicode="&#xd0;" horiz-adv-x="637" 
d="M482.5 613q88.5 -72 88.5 -265t-89.5 -270.5t-218.5 -77.5h-147v328h-93v48h93v309h136q142 0 230.5 -72zM508 348q0 118 -35 181t-89 84.5t-125 21.5h-83v-259h175v-48h-175v-278h90q242 0 242 298z" />
    <glyph glyph-name="Dcaron" unicode="&#x10e;" horiz-adv-x="632" 
d="M477.5 613q88.5 -72 88.5 -265t-89.5 -270.5t-218.5 -77.5h-147v685h136q142 0 230.5 -72zM171 635v-585h91q241 0 241 298q0 118 -35 181t-88.5 84.5t-124.5 21.5h-84zM447 857l-129 -101h-36l-130 101l26 31l122 -80l121 80z" />
    <glyph glyph-name="uni1E12" unicode="&#x1e12;" horiz-adv-x="632" 
d="M477.5 613q88.5 -72 88.5 -265t-89.5 -270.5t-218.5 -77.5h-147v685h136q142 0 230.5 -72zM171 635v-585h91q241 0 241 298q0 118 -35 181t-88.5 84.5t-124.5 21.5h-84zM152 -176l129 106h36l130 -106l-26 -30l-122 85l-121 -85z" />
    <glyph glyph-name="Dcroat" unicode="&#x110;" horiz-adv-x="637" 
d="M482.5 613q88.5 -72 88.5 -265t-89.5 -270.5t-218.5 -77.5h-147v328h-93v48h93v309h136q142 0 230.5 -72zM508 348q0 118 -35 181t-89 84.5t-125 21.5h-83v-259h175v-48h-175v-278h90q242 0 242 298z" />
    <glyph glyph-name="uni1E0A" unicode="&#x1e0a;" horiz-adv-x="632" 
d="M477.5 613q88.5 -72 88.5 -265t-89.5 -270.5t-218.5 -77.5h-147v685h136q142 0 230.5 -72zM171 635v-585h91q241 0 241 298q0 118 -35 181t-88.5 84.5t-124.5 21.5h-84zM331 867q12 -12 12 -30t-12 -30t-32 -12q-19 0 -31 12t-12 30t12 30t31 12q20 0 32 -12z" />
    <glyph glyph-name="uni1E0C" unicode="&#x1e0c;" horiz-adv-x="632" 
d="M477.5 613q88.5 -72 88.5 -265t-89.5 -270.5t-218.5 -77.5h-147v685h136q142 0 230.5 -72zM171 635v-585h91q241 0 241 298q0 118 -35 181t-88.5 84.5t-124.5 21.5h-84zM268 -158q-12 12 -12 30t12 30t32 12q19 0 31 -12t12 -30t-12 -30t-31 -12q-20 0 -32 12z" />
    <glyph glyph-name="uni018A" unicode="&#x18a;" horiz-adv-x="692" 
d="M537.5 613q88.5 -72 88.5 -265t-89.5 -270.5t-218.5 -77.5h-147v636h-29q-36 0 -53.5 -17t-17.5 -46q0 -20 5.5 -36t16.5 -39l-42 -22q-18 27 -27 48t-9 50q0 50 34 80.5t97 30.5h26h135q142 0 230.5 -72zM563 348q0 118 -35 181t-88.5 84.5t-124.5 21.5h-84v-585h91
q241 0 241 298z" />
    <glyph glyph-name="uni1E0E" unicode="&#x1e0e;" horiz-adv-x="632" 
d="M477.5 613q88.5 -72 88.5 -265t-89.5 -270.5t-218.5 -77.5h-147v685h136q142 0 230.5 -72zM171 635v-585h91q241 0 241 298q0 118 -35 181t-88.5 84.5t-124.5 21.5h-84zM179 -159v47h241v-47h-241z" />
    <glyph glyph-name="uni018B" unicode="&#x18b;" horiz-adv-x="569" 
d="M458 0h-178q-107 0 -171.5 50.5t-64.5 155.5q0 102 65 157t181 55h108v216h-282v51h342v-685zM398 50v319h-109q-89 0 -135.5 -40t-46.5 -123q0 -84 45.5 -120t129.5 -36h116z" />
    <glyph glyph-name="uni01F2" unicode="&#x1f2;" horiz-adv-x="1054" 
d="M477.5 613q88.5 -72 88.5 -265t-89.5 -270.5t-218.5 -77.5h-147v685h136q142 0 230.5 -72zM171 635v-585h91q241 0 241 298q0 118 -35 181t-88.5 84.5t-124.5 21.5h-84zM1020 478l-292 -428h290l-6 -50h-352v45l292 428h-268v50h336v-45z" />
    <glyph glyph-name="uni01C5" unicode="&#x1c5;" horiz-adv-x="1054" 
d="M477.5 613q88.5 -72 88.5 -265t-89.5 -270.5t-218.5 -77.5h-147v685h136q142 0 230.5 -72zM171 635v-585h91q241 0 241 298q0 118 -35 181t-88.5 84.5t-124.5 21.5h-84zM1020 478l-292 -428h290l-6 -50h-352v45l292 428h-268v50h336v-45zM995 739l-129 -106h-36l-130 106
l26 30l122 -84l121 84z" />
    <glyph glyph-name="E" unicode="E" horiz-adv-x="512" 
d="M452 635h-281v-255h243v-50h-243v-280h295v-50h-355v685h348z" />
    <glyph glyph-name="Eacute" unicode="&#xc9;" horiz-adv-x="512" 
d="M452 635h-281v-255h243v-50h-243v-280h295v-50h-355v685h348zM396 836l-198 -78l-16 34l187 96z" />
    <glyph glyph-name="Ebreve" unicode="&#x114;" horiz-adv-x="512" 
d="M452 635h-281v-255h243v-50h-243v-280h295v-50h-355v685h348zM201 793.5q-36 28.5 -43 71.5l40 9q10 -29 33 -45.5t57 -16.5t57.5 16.5t33.5 45.5l40 -9q-7 -43 -43.5 -71.5t-87.5 -28.5t-87 28.5z" />
    <glyph glyph-name="Ecaron" unicode="&#x11a;" horiz-adv-x="512" 
d="M452 635h-281v-255h243v-50h-243v-280h295v-50h-355v685h348zM436 857l-129 -101h-36l-130 101l26 31l122 -80l121 80z" />
    <glyph glyph-name="uni0228" unicode="&#x228;" horiz-adv-x="512" 
d="M302 0v-64q47 -4 69.5 -24t22.5 -52q0 -41 -30 -64t-75 -23q-49 0 -80 21l18 36q27 -15 61 -15q24 0 39.5 11t15.5 34q0 22 -21.5 33t-67.5 11l9 96h-152v685h348l-7 -50h-281v-255h243v-50h-243v-280h295v-50h-164z" />
    <glyph glyph-name="Ecircumflex" unicode="&#xca;" horiz-adv-x="512" 
d="M452 635h-281v-255h243v-50h-243v-280h295v-50h-355v685h348zM289 842l-122 -80l-26 30l130 102h36l129 -102l-26 -30z" />
    <glyph glyph-name="uni1EBE" unicode="&#x1ebe;" horiz-adv-x="512" 
d="M524 953l-121 -120l-26 24l108 132zM288 807l-122 -80l-26 30l130 102h36l129 -102l-26 -30zM452 635h-281v-255h243v-50h-243v-280h295v-50h-355v685h348z" />
    <glyph glyph-name="uni1EC6" unicode="&#x1ec6;" horiz-adv-x="512" 
d="M452 635h-281v-255h243v-50h-243v-280h295v-50h-355v685h348zM289 842l-122 -80l-26 30l130 102h36l129 -102l-26 -30zM255 -158q-12 12 -12 30t12 30t32 12q19 0 31 -12t12 -30t-12 -30t-31 -12q-20 0 -32 12z" />
    <glyph glyph-name="uni1EC0" unicode="&#x1ec0;" horiz-adv-x="512" 
d="M203 857l-26 -24l-120 120l38 36zM288 807l-122 -80l-26 30l130 102h36l129 -102l-26 -30zM452 635h-281v-255h243v-50h-243v-280h295v-50h-355v685h348z" />
    <glyph glyph-name="uni1EC2" unicode="&#x1ec2;" horiz-adv-x="512" 
d="M391 886q35 2 52.5 12.5t17.5 34.5q0 19 -12.5 29.5t-34.5 10.5q-30 0 -58 -14l-16 36q36 21 81 21q43 0 68 -21.5t25 -57.5q0 -67 -75 -78v-46h-48v73zM288 807l-122 -80l-26 30l130 102h36l129 -102l-26 -30zM452 635h-281v-255h243v-50h-243v-280h295v-50h-355v685
h348z" />
    <glyph glyph-name="uni1EC4" unicode="&#x1ec4;" horiz-adv-x="512" 
d="M313 902.5q-15 6.5 -37 19.5q-16 10 -26.5 15t-20.5 5q-17 0 -29.5 -9.5t-26.5 -30.5l-36 18q37 68 92 68q17 0 31.5 -6t32.5 -18q18 -11 29 -16t24 -5q16 0 28.5 10t27.5 33l36 -18q-35 -72 -92 -72q-18 0 -33 6.5zM287 807l-122 -80l-26 30l130 102h36l129 -102
l-26 -30zM452 635h-281v-255h243v-50h-243v-280h295v-50h-355v685h348z" />
    <glyph glyph-name="uni0204" unicode="&#x204;" horiz-adv-x="512" 
d="M452 635h-281v-255h243v-50h-243v-280h295v-50h-355v685h348zM259 822l-38 -18l-93 142l52 27zM380 826l-38 -17l-84 136l52 28z" />
    <glyph glyph-name="Edieresis" unicode="&#xcb;" horiz-adv-x="512" 
d="M452 635h-281v-255h243v-50h-243v-280h295v-50h-355v685h348zM222.5 856.5q11.5 -11.5 11.5 -28.5t-11.5 -28t-28.5 -11t-28.5 11t-11.5 28t11.5 28.5t28.5 11.5t28.5 -11.5zM411.5 856.5q11.5 -11.5 11.5 -28.5t-11.5 -28t-28.5 -11t-28.5 11t-11.5 28t11.5 28.5
t28.5 11.5t28.5 -11.5z" />
    <glyph glyph-name="Edotaccent" unicode="&#x116;" horiz-adv-x="512" 
d="M452 635h-281v-255h243v-50h-243v-280h295v-50h-355v685h348zM320 867q12 -12 12 -30t-12 -30t-32 -12q-19 0 -31 12t-12 30t12 30t31 12q20 0 32 -12z" />
    <glyph glyph-name="uni1EB8" unicode="&#x1eb8;" horiz-adv-x="512" 
d="M452 635h-281v-255h243v-50h-243v-280h295v-50h-355v685h348zM255 -158q-12 12 -12 30t12 30t32 12q19 0 31 -12t12 -30t-12 -30t-31 -12q-20 0 -32 12z" />
    <glyph glyph-name="Egrave" unicode="&#xc8;" horiz-adv-x="512" 
d="M452 635h-281v-255h243v-50h-243v-280h295v-50h-355v685h348zM391 792l-16 -34l-198 78l26 52z" />
    <glyph glyph-name="uni1EBA" unicode="&#x1eba;" horiz-adv-x="512" 
d="M452 635h-281v-255h243v-50h-243v-280h295v-50h-355v685h348zM262 847q35 2 52.5 12.5t17.5 34.5q0 19 -12.5 29.5t-34.5 10.5q-30 0 -58 -14l-16 36q36 21 81 21q43 0 68 -21.5t25 -57.5q0 -67 -75 -78v-46h-48v73z" />
    <glyph glyph-name="uni0206" unicode="&#x206;" horiz-adv-x="512" 
d="M452 635h-281v-255h243v-50h-243v-280h295v-50h-355v685h348zM376 874q36 -30 43 -80l-40 -9q-20 72 -91 72q-70 0 -90 -72l-40 9q7 50 42.5 80t87.5 30t88 -30z" />
    <glyph glyph-name="Emacron" unicode="&#x112;" horiz-adv-x="512" 
d="M452 635h-281v-255h243v-50h-243v-280h295v-50h-355v685h348zM168 802v47h241v-47h-241z" />
    <glyph glyph-name="Eogonek" unicode="&#x118;" horiz-adv-x="512" 
d="M466 50v-50h-32q-67 -30 -94.5 -56.5t-27.5 -61.5q0 -24 15 -38t47 -14q27 0 59 7l-6 -48q-35 -7 -58 -7q-53 0 -82 25.5t-29 66.5q0 39 25.5 70t77.5 56h-250v685h348l-7 -50h-281v-255h243v-50h-243v-280h295z" />
    <glyph glyph-name="uni0190" unicode="&#x190;" horiz-adv-x="520" 
d="M385 675q50 -21 95 -63l-34 -37q-76 70 -168 70q-67 0 -104 -34t-37 -89q0 -62 41.5 -96t111.5 -34h60l-8 -51h-55q-82 1 -126 -37t-44 -108q0 -72 46.5 -113.5t123.5 -41.5q102 0 175 75l37 -34q-88 -93 -214 -93q-67 0 -119.5 25.5t-82.5 72.5t-30 109q0 78 43.5 122.5
t110.5 51.5q-61 13 -96.5 52t-35.5 103q0 76 53.5 123.5t146.5 47.5q60 0 110 -21z" />
    <glyph glyph-name="uni018E" unicode="&#x18e;" horiz-adv-x="512" 
d="M401 685v-685h-355v50h295v280h-243v50h243v255h-288v50h348z" />
    <glyph glyph-name="uni01A9" unicode="&#x1a9;" horiz-adv-x="494" 
d="M448 634h-329l214 -277v-34l-214 -272h329v-51h-403v44l231 295l-231 302v44h403v-51z" />
    <glyph glyph-name="uni0246" unicode="&#x246;" horiz-adv-x="512" 
d="M466 0h-244l-18 -70l-33 8l16 62h-76v685h257l15 60l33 -9l-14 -51h57l-7 -50h-63l-67 -255h92v-50h-105l-74 -280h231v-50zM171 380h116l68 255h-184v-255zM200 50l74 280h-103v-280h29z" />
    <glyph glyph-name="uni1EBC" unicode="&#x1ebc;" horiz-adv-x="512" 
d="M452 635h-281v-255h243v-50h-243v-280h295v-50h-355v685h348zM314 798.5q-15 6.5 -37 19.5q-16 10 -26.5 15t-20.5 5q-17 0 -29.5 -9.5t-26.5 -30.5l-36 18q37 68 92 68q17 0 31.5 -6t32.5 -18q18 -11 29 -16t24 -5q16 0 28.5 10t27.5 33l36 -18q-35 -72 -92 -72
q-18 0 -33 6.5z" />
    <glyph glyph-name="uni01B7" unicode="&#x1b7;" horiz-adv-x="494" 
d="M388.5 335q57.5 -51 57.5 -145q0 -59 -27 -104.5t-78 -71t-120 -25.5q-68 0 -117.5 21.5t-88.5 64.5l36 35q35 -37 74.5 -53.5t93.5 -16.5q80 0 122.5 41t42.5 109q0 78 -43.5 113.5t-128.5 35.5h-84v46l221 250h-310v50h382v-49l-227 -250h26q111 0 168.5 -51z" />
    <glyph glyph-name="uni01EE" unicode="&#x1ee;" horiz-adv-x="494" 
d="M388.5 335q57.5 -51 57.5 -145q0 -59 -27 -104.5t-78 -71t-120 -25.5q-68 0 -117.5 21.5t-88.5 64.5l36 35q35 -37 74.5 -53.5t93.5 -16.5q80 0 122.5 41t42.5 109q0 78 -43.5 113.5t-128.5 35.5h-84v46l221 250h-310v50h382v-49l-227 -250h26q111 0 168.5 -51zM377 857
l-129 -101h-36l-130 101l26 31l122 -80l121 80z" />
    <glyph glyph-name="uni01B8" unicode="&#x1b8;" horiz-adv-x="494" 
d="M478 75q-41 -44 -91 -65t-123 -21q-65 0 -114 24.5t-75.5 68.5t-26.5 102q0 94 58.5 148t167.5 54h26l-228 250v49h383v-50h-310l221 -249v-47h-84q-173 0 -173 -155q0 -67 41.5 -105.5t115.5 -38.5q60 0 100 16t76 54z" />
    <glyph glyph-name="F" unicode="F" horiz-adv-x="481" 
d="M446 635h-275v-267h237v-50h-237v-318h-60v685h342z" />
    <glyph glyph-name="uni1E1E" unicode="&#x1e1e;" horiz-adv-x="481" 
d="M446 635h-275v-267h237v-50h-237v-318h-60v685h342zM323 867q12 -12 12 -30t-12 -30t-32 -12q-19 0 -31 12t-12 30t12 30t31 12q20 0 32 -12z" />
    <glyph glyph-name="uni0191" unicode="&#x191;" horiz-adv-x="481" 
d="M171 635v-267h237v-50h-237v-389q0 -66 -34 -100t-91 -34q-58 0 -102 34l24 39q18 -12 35 -18t41 -6q31 0 49 20t18 64v757h342l-7 -50h-275z" />
    <glyph glyph-name="G" unicode="G" horiz-adv-x="618" 
d="M452.5 679.5q43.5 -16.5 87.5 -51.5l-36 -37q-37 28 -72 41t-81 13q-58 0 -108.5 -31t-82 -98.5t-31.5 -170.5q0 -153 58 -229t162 -76q80 0 144 36v243h-134l-7 50h200v-324q-96 -56 -206 -56q-85 0 -148 40t-97.5 120t-34.5 196q0 112 40 191.5t105 119.5t139 40
q59 0 102.5 -16.5z" />
    <glyph glyph-name="uni01F4" unicode="&#x1f4;" horiz-adv-x="618" 
d="M452.5 679.5q43.5 -16.5 87.5 -51.5l-36 -37q-37 28 -72 41t-81 13q-58 0 -108.5 -31t-82 -98.5t-31.5 -170.5q0 -153 58 -229t162 -76q80 0 144 36v243h-134l-7 50h200v-324q-96 -56 -206 -56q-85 0 -148 40t-97.5 120t-34.5 196q0 112 40 191.5t105 119.5t139 40
q59 0 102.5 -16.5zM458 836l-198 -78l-16 34l187 96z" />
    <glyph glyph-name="uni0194" unicode="&#x194;" horiz-adv-x="545" 
d="M309 60q33 -69 46 -104.5t13 -71.5q0 -41 -24.5 -65t-70.5 -24q-45 0 -70 23.5t-25 64.5q0 32 13 68t46 109l-221 625h65l193 -582l193 582h62zM303 -60q-9 28 -30 79q-21 -52 -30 -79.5t-9 -52.5q0 -21 10 -32.5t29 -11.5t29 11.5t10 32.5q0 25 -9 53z" />
    <glyph glyph-name="Gbreve" unicode="&#x11e;" horiz-adv-x="618" 
d="M452.5 679.5q43.5 -16.5 87.5 -51.5l-36 -37q-37 28 -72 41t-81 13q-58 0 -108.5 -31t-82 -98.5t-31.5 -170.5q0 -153 58 -229t162 -76q80 0 144 36v243h-134l-7 50h200v-324q-96 -56 -206 -56q-85 0 -148 40t-97.5 120t-34.5 196q0 112 40 191.5t105 119.5t139 40
q59 0 102.5 -16.5zM264 793.5q-36 28.5 -43 71.5l40 9q10 -29 33 -45.5t57 -16.5t57.5 16.5t33.5 45.5l40 -9q-7 -43 -43.5 -71.5t-87.5 -28.5t-87 28.5z" />
    <glyph glyph-name="Gcaron" unicode="&#x1e6;" horiz-adv-x="618" 
d="M452.5 679.5q43.5 -16.5 87.5 -51.5l-36 -37q-37 28 -72 41t-81 13q-58 0 -108.5 -31t-82 -98.5t-31.5 -170.5q0 -153 58 -229t162 -76q80 0 144 36v243h-134l-7 50h200v-324q-96 -56 -206 -56q-85 0 -148 40t-97.5 120t-34.5 196q0 112 40 191.5t105 119.5t139 40
q59 0 102.5 -16.5zM499 857l-129 -101h-36l-130 101l26 31l122 -80l121 80z" />
    <glyph glyph-name="Gcircumflex" unicode="&#x11c;" horiz-adv-x="618" 
d="M452.5 679.5q43.5 -16.5 87.5 -51.5l-36 -37q-37 28 -72 41t-81 13q-58 0 -108.5 -31t-82 -98.5t-31.5 -170.5q0 -153 58 -229t162 -76q80 0 144 36v243h-134l-7 50h200v-324q-96 -56 -206 -56q-85 0 -148 40t-97.5 120t-34.5 196q0 112 40 191.5t105 119.5t139 40
q59 0 102.5 -16.5zM351 842l-122 -80l-26 30l130 102h36l129 -102l-26 -30z" />
    <glyph glyph-name="Gcommaaccent" unicode="&#x122;" horiz-adv-x="618" 
d="M452.5 679.5q43.5 -16.5 87.5 -51.5l-36 -37q-37 28 -72 41t-81 13q-58 0 -108.5 -31t-82 -98.5t-31.5 -170.5q0 -153 58 -229t162 -76q80 0 144 36v243h-134l-7 50h200v-324q-96 -56 -206 -56q-85 0 -148 40t-97.5 120t-34.5 196q0 112 40 191.5t105 119.5t139 40
q59 0 102.5 -16.5zM371.5 -97q12.5 -12 12.5 -30q0 -12 -4.5 -24.5t-17.5 -41.5l-40 -86h-36l32 114q-22 14 -22 38q0 18 12.5 30t31.5 12t31.5 -12z" />
    <glyph glyph-name="Gdotaccent" unicode="&#x120;" horiz-adv-x="618" 
d="M452.5 679.5q43.5 -16.5 87.5 -51.5l-36 -37q-37 28 -72 41t-81 13q-58 0 -108.5 -31t-82 -98.5t-31.5 -170.5q0 -153 58 -229t162 -76q80 0 144 36v243h-134l-7 50h200v-324q-96 -56 -206 -56q-85 0 -148 40t-97.5 120t-34.5 196q0 112 40 191.5t105 119.5t139 40
q59 0 102.5 -16.5zM383 867q12 -12 12 -30t-12 -30t-32 -12q-19 0 -31 12t-12 30t12 30t31 12q20 0 32 -12z" />
    <glyph glyph-name="uni0193" unicode="&#x193;" horiz-adv-x="571" 
d="M709 790l-24 -37q-20 12 -36.5 17.5t-39.5 5.5q-69 0 -69 -83v-65l-31 -33q-38 26 -75.5 38t-82.5 12q-58 0 -108.5 -31t-82 -98.5t-31.5 -170.5q0 -153 58 -229t162 -76q80 0 144 36v243h-134l-7 50h200v-324q-96 -56 -206 -56q-85 0 -148 40t-97.5 120t-34.5 196
q0 112 39.5 191.5t103.5 119.5t136 40q42 0 74.5 -8t62.5 -26v28q0 65 33 99.5t92 34.5q58 0 102 -34z" />
    <glyph glyph-name="uni0241" unicode="&#x241;" horiz-adv-x="461" 
d="M157 305l73 18q68 18 102.5 55t34.5 112q0 70 -39 112.5t-110 42.5q-48 0 -88.5 -17.5t-79.5 -52.5l-35 37q48 43 97 63.5t109 20.5q64 0 111 -26t72.5 -72.5t25.5 -105.5q0 -96 -48 -143t-130 -68l-35 -9v-272h-60v305z" />
    <glyph glyph-name="uni01E4" unicode="&#x1e4;" horiz-adv-x="631" 
d="M623 191h-71v-146q-96 -56 -206 -56q-85 0 -148 40t-97.5 120t-34.5 196q0 112 40 191.5t105 119.5t139 40q59 0 102.5 -16.5t87.5 -51.5l-36 -37q-37 28 -72 41t-81 13q-58 0 -108.5 -31t-82 -98.5t-31.5 -170.5q0 -153 58 -229t162 -76q80 0 144 36v115h-134v51h134v77
h-134l-7 50h200v-127h71v-51z" />
    <glyph glyph-name="H" unicode="H" horiz-adv-x="670" 
d="M499 335h-328v-335h-60v685h60v-299h328v299h60v-685h-60v335z" />
    <glyph glyph-name="Hbar" unicode="&#x126;" horiz-adv-x="674" 
d="M627 513h-66v-513h-60v335h-328v-335h-60v513h-66v45h66v127h60v-127h328v127h60v-127h66v-45zM501 513h-328v-127h328v127z" />
    <glyph glyph-name="uni021E" unicode="&#x21e;" horiz-adv-x="670" 
d="M499 335h-328v-335h-60v685h60v-299h328v299h60v-685h-60v335zM481 857l-129 -101h-36l-130 101l26 31l122 -80l121 80z" />
    <glyph glyph-name="Hcircumflex" unicode="&#x124;" horiz-adv-x="670" 
d="M499 335h-328v-335h-60v685h60v-299h328v299h60v-685h-60v335zM334 842l-122 -80l-26 30l130 102h36l129 -102l-26 -30z" />
    <glyph glyph-name="uni1E24" unicode="&#x1e24;" horiz-adv-x="670" 
d="M499 335h-328v-335h-60v685h60v-299h328v299h60v-685h-60v335zM303 -158q-12 12 -12 30t12 30t32 12q19 0 31 -12t12 -30t-12 -30t-31 -12q-20 0 -32 12z" />
    <glyph glyph-name="uniA7AA" unicode="&#xa7aa;" horiz-adv-x="731" 
d="M620 685v-685h-60v335h-329v-335h-60v636h-29q-36 0 -53.5 -17t-17.5 -46q0 -20 5.5 -36t16.5 -39l-42 -22q-18 27 -27 48t-9 50q0 50 34 80.5t97 30.5h26h59v-299h329v299h60z" />
    <glyph glyph-name="uniA78D" unicode="&#xa78d;" horiz-adv-x="594" 
d="M483 685v-685h-60v295q-41 -36 -84.5 -54t-98.5 -18q-88 0 -141.5 52.5t-53.5 143.5v266h60v-262q0 -72 39 -109.5t109 -37.5q53 0 97 20t73 54v335h60z" />
    <glyph glyph-name="uniA78D.ss02" horiz-adv-x="586" 
d="M415 266h-360v419h59v-368h301v368h60v-685h-60v266z" />
    <glyph glyph-name="uni01F6" unicode="&#x1f6;" horiz-adv-x="964" 
d="M883 260q0 -91 -29.5 -152t-77.5 -90t-106 -29q-74 0 -122.5 44.5t-48.5 125.5v176h-328v-335h-60v685h60v-299h328v299h60v-522q0 -63 30.5 -94t82.5 -31q63 0 107.5 53t44.5 173q0 119 -26 259h59q26 -150 26 -263z" />
    <glyph glyph-name="I" unicode="I" horiz-adv-x="282" 
d="M171 0h-60v685h60v-685z" />
    <glyph glyph-name="IJ" unicode="&#x132;" horiz-adv-x="573" 
d="M171 0h-60v685h60v-685zM467 92q0 -61 -15.5 -99.5t-48.5 -63.5t-92 -48l-16 44q46 20 70 41.5t33 51t9 77.5v590h60v-593z" />
    <glyph glyph-name="Iacute" unicode="&#xcd;" horiz-adv-x="282" 
d="M171 0h-60v685h60v-685zM247 836l-198 -78l-16 34l187 96z" />
    <glyph glyph-name="Ibreve" unicode="&#x12c;" horiz-adv-x="282" 
d="M171 0h-60v685h60v-685zM53 793.5q-36 28.5 -43 71.5l40 9q10 -29 33 -45.5t57 -16.5t57.5 16.5t33.5 45.5l40 -9q-7 -43 -43.5 -71.5t-87.5 -28.5t-87 28.5z" />
    <glyph glyph-name="uni01CF" unicode="&#x1cf;" horiz-adv-x="282" 
d="M171 0h-60v685h60v-685zM288 857l-129 -101h-36l-130 101l26 31l122 -80l121 80z" />
    <glyph glyph-name="Icircumflex" unicode="&#xce;" horiz-adv-x="282" 
d="M171 0h-60v685h60v-685zM140 842l-122 -80l-26 30l130 102h36l129 -102l-26 -30z" />
    <glyph glyph-name="uni0208" unicode="&#x208;" horiz-adv-x="282" 
d="M171 0h-60v685h60v-685zM111 822l-38 -18l-93 142l52 27zM232 826l-38 -17l-84 136l52 28z" />
    <glyph glyph-name="Idieresis" unicode="&#xcf;" horiz-adv-x="282" 
d="M171 0h-60v685h60v-685zM73.5 856.5q11.5 -11.5 11.5 -28.5t-11.5 -28t-28.5 -11t-28.5 11t-11.5 28t11.5 28.5t28.5 11.5t28.5 -11.5zM262.5 856.5q11.5 -11.5 11.5 -28.5t-11.5 -28t-28.5 -11t-28.5 11t-11.5 28t11.5 28.5t28.5 11.5t28.5 -11.5z" />
    <glyph glyph-name="uni1E2E" unicode="&#x1e2e;" horiz-adv-x="282" 
d="M257 935l-121 -120l-26 24l108 132zM73.5 811.5q11.5 -11.5 11.5 -28.5t-11.5 -28t-28.5 -11t-28.5 11t-11.5 28t11.5 28.5t28.5 11.5t28.5 -11.5zM262.5 811.5q11.5 -11.5 11.5 -28.5t-11.5 -28t-28.5 -11t-28.5 11t-11.5 28t11.5 28.5t28.5 11.5t28.5 -11.5zM171 0h-60
v685h60v-685z" />
    <glyph glyph-name="Idotaccent" unicode="&#x130;" horiz-adv-x="282" 
d="M171 0h-60v685h60v-685zM172 867q12 -12 12 -30t-12 -30t-32 -12q-19 0 -31 12t-12 30t12 30t31 12q20 0 32 -12z" />
    <glyph glyph-name="uni1ECA" unicode="&#x1eca;" horiz-adv-x="282" 
d="M171 0h-60v685h60v-685zM109 -158q-12 12 -12 30t12 30t32 12q19 0 31 -12t12 -30t-12 -30t-31 -12q-20 0 -32 12z" />
    <glyph glyph-name="Igrave" unicode="&#xcc;" horiz-adv-x="282" 
d="M171 0h-60v685h60v-685zM243 792l-16 -34l-198 78l26 52z" />
    <glyph glyph-name="uni1EC8" unicode="&#x1ec8;" horiz-adv-x="282" 
d="M171 0h-60v685h60v-685zM113 847q35 2 52.5 12.5t17.5 34.5q0 19 -12.5 29.5t-34.5 10.5q-30 0 -58 -14l-16 36q36 21 81 21q43 0 68 -21.5t25 -57.5q0 -67 -75 -78v-46h-48v73z" />
    <glyph glyph-name="uni020A" unicode="&#x20a;" horiz-adv-x="282" 
d="M171 0h-60v685h60v-685zM228 874q36 -30 43 -80l-40 -9q-20 72 -91 72q-70 0 -90 -72l-40 9q7 50 42.5 80t87.5 30t88 -30z" />
    <glyph glyph-name="Imacron" unicode="&#x12a;" horiz-adv-x="282" 
d="M171 0h-60v685h60v-685zM20 802v47h241v-47h-241z" />
    <glyph glyph-name="Iogonek" unicode="&#x12e;" horiz-adv-x="282" 
d="M64 -156q15 -14 47 -14q27 0 59 7l-6 -48q-35 -7 -58 -7q-53 0 -82 25.5t-29 66.5q0 42 28.5 73.5t87.5 58.5v679h60v-685q-67 -30 -94.5 -56.5t-27.5 -61.5q0 -24 15 -38z" />
    <glyph glyph-name="uni0196" unicode="&#x196;" horiz-adv-x="344" 
d="M328 23q-44 -34 -102 -34q-57 0 -91 34.5t-34 100.5v561h60v-563q0 -83 67 -83q24 0 40.5 5.5t35.5 17.5z" />
    <glyph glyph-name="uni0197" unicode="&#x197;" horiz-adv-x="316" 
d="M290 335h-102v-335h-60v335h-102v49h102v301h60v-301h102v-49z" />
    <glyph glyph-name="Itilde" unicode="&#x128;" horiz-adv-x="282" 
d="M171 0h-60v685h60v-685zM166 798.5q-15 6.5 -37 19.5q-16 10 -26.5 15t-20.5 5q-17 0 -29.5 -9.5t-26.5 -30.5l-36 18q37 68 92 68q17 0 31.5 -6t32.5 -18q18 -11 29 -16t24 -5q16 0 28.5 10t27.5 33l36 -18q-35 -72 -92 -72q-18 0 -33 6.5z" />
    <glyph glyph-name="J" unicode="J" horiz-adv-x="291" 
d="M185 92q0 -61 -15.5 -99.5t-48.5 -63.5t-92 -48l-16 44q46 20 70 41.5t33 51t9 77.5v590h60v-593z" />
    <glyph glyph-name="Jcircumflex" unicode="&#x134;" horiz-adv-x="291" 
d="M185 92q0 -61 -15.5 -99.5t-48.5 -63.5t-92 -48l-16 44q46 20 70 41.5t33 51t9 77.5v590h60v-593zM154 842l-122 -80l-26 30l130 102h36l129 -102l-26 -30z" />
    <glyph glyph-name="uni0248" unicode="&#x248;" horiz-adv-x="301" 
d="M286 318h-101v-226q0 -61 -15.5 -99.5t-48.5 -63.5t-92 -48l-16 44q46 20 70 41.5t33 51t9 77.5v223h-103v50h103v317h60v-317h101v-50z" />
    <glyph glyph-name="K" unicode="K" horiz-adv-x="547" 
d="M171 0h-60v685h60v-685zM246 370l301 -370h-73l-299 367l286 318h69z" />
    <glyph glyph-name="uni01E8" unicode="&#x1e8;" horiz-adv-x="547" 
d="M171 0h-60v685h60v-685zM246 370l301 -370h-73l-299 367l286 318h69zM454 857l-129 -101h-36l-130 101l26 31l122 -80l121 80z" />
    <glyph glyph-name="Kcommaaccent" unicode="&#x136;" horiz-adv-x="547" 
d="M171 0h-60v685h60v-685zM246 370l301 -370h-73l-299 367l286 318h69zM338.5 -97q12.5 -12 12.5 -30q0 -12 -4.5 -24.5t-17.5 -41.5l-40 -86h-36l32 114q-22 14 -22 38q0 18 12.5 30t31.5 12t31.5 -12z" />
    <glyph glyph-name="uni0198" unicode="&#x198;" horiz-adv-x="578" 
d="M245 370l302 -370h-73l-299 367l180 248q33 45 61 63t70 18q51 0 92 -37l-25 -37q-31 24 -64 24q-26 0 -45 -11.5t-47 -49.5zM171 0h-60v685h60v-685z" />
    <glyph glyph-name="L" unicode="L" horiz-adv-x="477" 
d="M171 54h286l-8 -54h-338v685h60v-631z" />
    <glyph glyph-name="uni01C7" unicode="&#x1c7;" horiz-adv-x="768" 
d="M171 54h286l-8 -54h-338v685h60v-631zM662 92q0 -61 -15.5 -99.5t-48.5 -63.5t-92 -48l-16 44q46 20 70 41.5t33 51t9 77.5v590h60v-593z" />
    <glyph glyph-name="Lacute" unicode="&#x139;" horiz-adv-x="477" 
d="M171 54h286l-8 -54h-338v685h60v-631zM248 836l-198 -78l-16 34l187 96z" />
    <glyph glyph-name="uni023D" unicode="&#x23d;" horiz-adv-x="493" 
d="M473 54l-8 -54h-338v338h-101v50h101v297h60v-297h103v-50h-103v-284h286z" />
    <glyph glyph-name="Lcaron" unicode="&#x13d;" horiz-adv-x="477" 
d="M171 54h286l-8 -54h-338v685h60v-631zM309 685l-39 -164l-36 5l19 165z" />
    <glyph glyph-name="uni1E3C" unicode="&#x1e3c;" horiz-adv-x="477" 
d="M171 54h286l-8 -54h-338v685h60v-631zM134 -176l129 106h36l130 -106l-26 -30l-122 85l-121 -85z" />
    <glyph glyph-name="Lcommaaccent" unicode="&#x13b;" horiz-adv-x="477" 
d="M171 54h286l-8 -54h-338v685h60v-631zM313.5 -97q12.5 -12 12.5 -30q0 -12 -4.5 -24.5t-17.5 -41.5l-40 -86h-36l32 114q-22 14 -22 38q0 18 12.5 30t31.5 12t31.5 -12z" />
    <glyph glyph-name="Ldot" unicode="&#x13f;" horiz-adv-x="477" 
d="M171 54h286l-8 -54h-338v685h60v-631zM401 399q12 -12 12 -30t-12 -30t-32 -12q-19 0 -31 12t-12 30t12 30t31 12q20 0 32 -12z" />
    <glyph glyph-name="uni1E36" unicode="&#x1e36;" horiz-adv-x="477" 
d="M171 54h286l-8 -54h-338v685h60v-631zM251 -158q-12 12 -12 30t12 30t32 12q19 0 31 -12t12 -30t-12 -30t-31 -12q-20 0 -32 12z" />
    <glyph glyph-name="uni01C8" unicode="&#x1c8;" horiz-adv-x="747" 
d="M171 54h286l-8 -54h-338v685h60v-631zM641 19q0 -68 -15 -108.5t-44 -65t-82 -48.5l-17 42q38 19 58.5 37.5t31 51t10.5 89.5v506h58v-504zM643 741q12 -12 12 -30t-12 -30t-32 -12q-19 0 -31 12t-12 30t12 30t31 12q20 0 32 -12z" />
    <glyph glyph-name="Lslash" unicode="&#x141;" horiz-adv-x="488" 
d="M468 54l-9 -54h-338v281l-64 -40l-24 39l88 55v350h60v-313l181 113l25 -39l-206 -128v-264h287z" />
    <glyph glyph-name="M" unicode="M" horiz-adv-x="778" 
d="M701 0h-58l-31 328q-19 192 -26 299l-172 -546h-57l-178 546q-3 -53 -20 -264l-3 -33l-30 -330h-57l65 685h83l170 -534l164 534h84z" />
    <glyph glyph-name="uni1E3E" unicode="&#x1e3e;" horiz-adv-x="778" 
d="M701 0h-58l-31 328q-19 192 -26 299l-172 -546h-57l-178 546q-3 -53 -20 -264l-3 -33l-30 -330h-57l65 685h83l170 -534l164 534h84zM491 836l-198 -78l-16 34l187 96z" />
    <glyph glyph-name="uni1E40" unicode="&#x1e40;" horiz-adv-x="778" 
d="M701 0h-58l-31 328q-19 192 -26 299l-172 -546h-57l-178 546q-3 -53 -20 -264l-3 -33l-30 -330h-57l65 685h83l170 -534l164 534h84zM416 867q12 -12 12 -30t-12 -30t-32 -12q-19 0 -31 12t-12 30t12 30t31 12q20 0 32 -12z" />
    <glyph glyph-name="uni019C" unicode="&#x19c;" horiz-adv-x="929" 
d="M818 685v-685h-52l-6 93q-31 -49 -74 -76.5t-97 -27.5q-55 0 -93 28.5t-55 81.5q-77 -110 -180 -110q-76 0 -118 52t-42 143v501h60v-503q0 -68 28 -105t80 -37q50 0 88 28.5t74 84.5q-2 20 -2 31v501h60v-503q0 -68 28 -105t80 -37t90 29t71 85v531h60z" />
    <glyph glyph-name="N" unicode="N" horiz-adv-x="673" 
d="M562 0h-79l-323 619q8 -125 8 -236v-383h-57v685h77l325 -619q-8 116 -8 203v416h57v-685z" />
    <glyph glyph-name="uni01CA" unicode="&#x1ca;" horiz-adv-x="963" 
d="M562 0h-79l-323 619q8 -125 8 -236v-383h-57v685h77l325 -619q-8 116 -8 203v416h57v-685zM858 92q0 -61 -15.5 -99.5t-48.5 -63.5t-92 -48l-16 44q46 20 70 41.5t33 51t9 77.5v590h60v-593z" />
    <glyph glyph-name="Nacute" unicode="&#x143;" horiz-adv-x="673" 
d="M562 0h-79l-323 619q8 -125 8 -236v-383h-57v685h77l325 -619q-8 116 -8 203v416h57v-685zM452 836l-198 -78l-16 34l187 96z" />
    <glyph glyph-name="Nacute.loclPLK" horiz-adv-x="673" 
d="M562 0h-79l-323 619q8 -125 8 -236v-383h-57v685h77l325 -619q-8 116 -8 203v416h57v-685zM455 877l-120 -145l-30 19l102 157z" />
    <glyph glyph-name="Ncaron" unicode="&#x147;" horiz-adv-x="673" 
d="M562 0h-79l-323 619q8 -125 8 -236v-383h-57v685h77l325 -619q-8 116 -8 203v416h57v-685zM492 857l-129 -101h-36l-130 101l26 31l122 -80l121 80z" />
    <glyph glyph-name="uni1E4A" unicode="&#x1e4a;" horiz-adv-x="673" 
d="M562 0h-79l-323 619q8 -125 8 -236v-383h-57v685h77l325 -619q-8 116 -8 203v416h57v-685zM189 -176l129 106h36l130 -106l-26 -30l-122 85l-121 -85z" />
    <glyph glyph-name="Ncommaaccent" unicode="&#x145;" horiz-adv-x="673" 
d="M562 0h-79l-323 619q8 -125 8 -236v-383h-57v685h77l325 -619q-8 116 -8 203v416h57v-685zM368.5 -97q12.5 -12 12.5 -30q0 -12 -4.5 -24.5t-17.5 -41.5l-40 -86h-36l32 114q-22 14 -22 38q0 18 12.5 30t31.5 12t31.5 -12z" />
    <glyph glyph-name="uni1E44" unicode="&#x1e44;" horiz-adv-x="673" 
d="M562 0h-79l-323 619q8 -125 8 -236v-383h-57v685h77l325 -619q-8 116 -8 203v416h57v-685zM377 867q12 -12 12 -30t-12 -30t-32 -12q-19 0 -31 12t-12 30t12 30t31 12q20 0 32 -12z" />
    <glyph glyph-name="uni1E46" unicode="&#x1e46;" horiz-adv-x="673" 
d="M562 0h-79l-323 619q8 -125 8 -236v-383h-57v685h77l325 -619q-8 116 -8 203v416h57v-685zM305 -158q-12 12 -12 30t12 30t32 12q19 0 31 -12t12 -30t-12 -30t-31 -12q-20 0 -32 12z" />
    <glyph glyph-name="uni01F8" unicode="&#x1f8;" horiz-adv-x="673" 
d="M562 0h-79l-323 619q8 -125 8 -236v-383h-57v685h77l325 -619q-8 116 -8 203v416h57v-685zM447 792l-16 -34l-198 78l26 52z" />
    <glyph glyph-name="Eng" unicode="&#x14a;" horiz-adv-x="673" 
d="M528 -171q-34 -34 -92 -34q-57 0 -101 34l24 39q18 -12 34.5 -18t40.5 -6q31 0 49.5 20t18.5 64v72h-19l-323 619q8 -125 8 -236v-383h-57v685h77l325 -619q-8 116 -8 203v416h57v-756q0 -66 -34 -100z" />
    <glyph glyph-name="Eng.ss01" horiz-adv-x="663" 
d="M559 -71q0 -66 -34 -100t-91 -34q-58 0 -102 34l25 39q17 -12 34 -18t41 -6q31 0 49 20t18 64v559q0 158 -128 158q-63 0 -109 -29t-91 -84v-532h-60v685h52l6 -97q87 108 212 108q87 0 132.5 -52t45.5 -145v-570z" />
    <glyph glyph-name="uni019D" unicode="&#x19d;" horiz-adv-x="673" 
d="M562 685v-685h-79l-323 619q8 -125 8 -236v-455q0 -65 -33.5 -99t-90.5 -34q-58 0 -102 34l24 37q19 -11 35.5 -17t39.5 -6q70 0 70 83v759h77l325 -619q-8 116 -8 203v416h57z" />
    <glyph glyph-name="uni019D.ss01" horiz-adv-x="663" 
d="M513.5 644q45.5 -52 45.5 -145v-499h-60v487q0 158 -128 158q-63 0 -109 -29t-91 -84v-603q0 -66 -34 -100t-91 -34q-58 0 -102 34l24 39q18 -12 34.5 -18t40.5 -6q31 0 49.5 20t18.5 64v757h52l6 -97q87 108 212 108q87 0 132.5 -52z" />
    <glyph glyph-name="uni01CB" unicode="&#x1cb;" horiz-adv-x="942" 
d="M562 0h-79l-323 619q8 -125 8 -236v-383h-57v685h77l325 -619q-8 116 -8 203v416h57v-685zM837 19q0 -68 -15 -108.5t-44 -65t-82 -48.5l-17 42q38 19 58.5 37.5t31 51t10.5 89.5v506h58v-504zM839 741q12 -12 12 -30t-12 -30t-32 -12q-19 0 -31 12t-12 30t12 30t31 12
q20 0 32 -12z" />
    <glyph glyph-name="uni0220" unicode="&#x220;" horiz-adv-x="663" 
d="M513.5 644q45.5 -52 45.5 -145v-696h-60v684q0 158 -128 158q-63 0 -109 -29t-91 -84v-532h-60v685h52l6 -97q87 108 212 108q87 0 132.5 -52z" />
    <glyph glyph-name="Ntilde" unicode="&#xd1;" horiz-adv-x="673" 
d="M562 0h-79l-323 619q8 -125 8 -236v-383h-57v685h77l325 -619q-8 116 -8 203v416h57v-685zM371 798.5q-15 6.5 -37 19.5q-16 10 -26.5 15t-20.5 5q-17 0 -29.5 -9.5t-26.5 -30.5l-36 18q37 68 92 68q17 0 31.5 -6t32.5 -18q18 -11 29 -16t24 -5q16 0 28.5 10t27.5 33
l36 -18q-35 -72 -92 -72q-18 0 -33 6.5z" />
    <glyph glyph-name="O" unicode="O" horiz-adv-x="691" 
d="M492 655.5q63 -40.5 98 -120.5t35 -193q0 -111 -34.5 -190.5t-97.5 -121t-148 -41.5q-83 0 -146 41t-98 120t-35 191q0 111 35 191t98.5 122t145.5 42q84 0 147 -40.5zM187 568.5q-58 -76.5 -58 -227.5q0 -149 58.5 -225t157.5 -76q103 0 160 75.5t57 226.5
q0 152 -57.5 227.5t-159.5 75.5q-100 0 -158 -76.5z" />
    <glyph glyph-name="uni0222" unicode="&#x222;" horiz-adv-x="640" 
d="M538 316.5q36 -48.5 36 -116.5q0 -58 -29 -106t-86 -76.5t-139 -28.5q-80 0 -137.5 27.5t-87 75.5t-29.5 107q0 66 36.5 115t104.5 72q-94 43 -94 167v132h60v-130q0 -70 33.5 -109t113.5 -39q151 0 151 148v130h60v-132q0 -57 -24.5 -100t-73.5 -66q69 -22 105 -70.5z
M511 200q0 75 -47 115.5t-144 40.5q-95 0 -143 -41.5t-48 -115.5q0 -76 48 -117.5t143 -41.5q191 0 191 160z" />
    <glyph glyph-name="Oacute" unicode="&#xd3;" horiz-adv-x="691" 
d="M492 655.5q63 -40.5 98 -120.5t35 -193q0 -111 -34.5 -190.5t-97.5 -121t-148 -41.5q-83 0 -146 41t-98 120t-35 191q0 111 35 191t98.5 122t145.5 42q84 0 147 -40.5zM187 568.5q-58 -76.5 -58 -227.5q0 -149 58.5 -225t157.5 -76q103 0 160 75.5t57 226.5
q0 152 -57.5 227.5t-159.5 75.5q-100 0 -158 -76.5zM452 836l-198 -78l-16 34l187 96z" />
    <glyph glyph-name="Oacute.loclPLK" horiz-adv-x="691" 
d="M492 655.5q63 -40.5 98 -120.5t35 -193q0 -111 -34.5 -190.5t-97.5 -121t-148 -41.5q-83 0 -146 41t-98 120t-35 191q0 111 35 191t98.5 122t145.5 42q84 0 147 -40.5zM187 568.5q-58 -76.5 -58 -227.5q0 -149 58.5 -225t157.5 -76q103 0 160 75.5t57 226.5
q0 152 -57.5 227.5t-159.5 75.5q-100 0 -158 -76.5zM455 877l-120 -145l-30 19l102 157z" />
    <glyph glyph-name="Obreve" unicode="&#x14e;" horiz-adv-x="691" 
d="M492 655.5q63 -40.5 98 -120.5t35 -193q0 -111 -34.5 -190.5t-97.5 -121t-148 -41.5q-83 0 -146 41t-98 120t-35 191q0 111 35 191t98.5 122t145.5 42q84 0 147 -40.5zM187 568.5q-58 -76.5 -58 -227.5q0 -149 58.5 -225t157.5 -76q103 0 160 75.5t57 226.5
q0 152 -57.5 227.5t-159.5 75.5q-100 0 -158 -76.5zM258 793.5q-36 28.5 -43 71.5l40 9q10 -29 33 -45.5t57 -16.5t57.5 16.5t33.5 45.5l40 -9q-7 -43 -43.5 -71.5t-87.5 -28.5t-87 28.5z" />
    <glyph glyph-name="uni01D1" unicode="&#x1d1;" horiz-adv-x="691" 
d="M492 655.5q63 -40.5 98 -120.5t35 -193q0 -111 -34.5 -190.5t-97.5 -121t-148 -41.5q-83 0 -146 41t-98 120t-35 191q0 111 35 191t98.5 122t145.5 42q84 0 147 -40.5zM187 568.5q-58 -76.5 -58 -227.5q0 -149 58.5 -225t157.5 -76q103 0 160 75.5t57 226.5
q0 152 -57.5 227.5t-159.5 75.5q-100 0 -158 -76.5zM493 857l-129 -101h-36l-130 101l26 31l122 -80l121 80z" />
    <glyph glyph-name="uni019F" unicode="&#x19f;" horiz-adv-x="691" 
d="M492 655q63 -41 98 -120.5t35 -193.5q0 -110 -34.5 -189.5t-97.5 -121t-148 -41.5q-83 0 -146 41t-98 120t-35 190t35 191.5t98.5 122.5t145.5 42q84 0 147 -41zM193 576.5q-57 -68.5 -64 -203.5h433q-6 136 -63 204t-154 68q-95 0 -152 -68.5zM503 111.5
q57 71.5 60 214.5h-435q3 -141 61.5 -213.5t155.5 -72.5q101 0 158 71.5z" />
    <glyph glyph-name="Ocircumflex" unicode="&#xd4;" horiz-adv-x="691" 
d="M492 655.5q63 -40.5 98 -120.5t35 -193q0 -111 -34.5 -190.5t-97.5 -121t-148 -41.5q-83 0 -146 41t-98 120t-35 191q0 111 35 191t98.5 122t145.5 42q84 0 147 -40.5zM187 568.5q-58 -76.5 -58 -227.5q0 -149 58.5 -225t157.5 -76q103 0 160 75.5t57 226.5
q0 152 -57.5 227.5t-159.5 75.5q-100 0 -158 -76.5zM345 842l-122 -80l-26 30l130 102h36l129 -102l-26 -30z" />
    <glyph glyph-name="uni1ED0" unicode="&#x1ed0;" horiz-adv-x="691" 
d="M581 953l-121 -120l-26 24l108 132zM345 807l-122 -80l-26 30l130 102h36l129 -102l-26 -30zM492 655.5q63 -40.5 98 -120.5t35 -193q0 -111 -34.5 -190.5t-97.5 -121t-148 -41.5q-83 0 -146 41t-98 120t-35 191q0 111 35 191t98.5 122t145.5 42q84 0 147 -40.5z
M187 568.5q-58 -76.5 -58 -227.5q0 -149 58.5 -225t157.5 -76q103 0 160 75.5t57 226.5q0 152 -57.5 227.5t-159.5 75.5q-100 0 -158 -76.5z" />
    <glyph glyph-name="uni1ED8" unicode="&#x1ed8;" horiz-adv-x="691" 
d="M492 655.5q63 -40.5 98 -120.5t35 -193q0 -111 -34.5 -190.5t-97.5 -121t-148 -41.5q-83 0 -146 41t-98 120t-35 191q0 111 35 191t98.5 122t145.5 42q84 0 147 -40.5zM187 568.5q-58 -76.5 -58 -227.5q0 -149 58.5 -225t157.5 -76q103 0 160 75.5t57 226.5
q0 152 -57.5 227.5t-159.5 75.5q-100 0 -158 -76.5zM345 842l-122 -80l-26 30l130 102h36l129 -102l-26 -30zM314 -158q-12 12 -12 30t12 30t32 12q19 0 31 -12t12 -30t-12 -30t-31 -12q-20 0 -32 12z" />
    <glyph glyph-name="uni1ED2" unicode="&#x1ed2;" horiz-adv-x="691" 
d="M260 857l-26 -24l-120 120l38 36zM345 807l-122 -80l-26 30l130 102h36l129 -102l-26 -30zM492 655.5q63 -40.5 98 -120.5t35 -193q0 -111 -34.5 -190.5t-97.5 -121t-148 -41.5q-83 0 -146 41t-98 120t-35 191q0 111 35 191t98.5 122t145.5 42q84 0 147 -40.5zM187 568.5
q-58 -76.5 -58 -227.5q0 -149 58.5 -225t157.5 -76q103 0 160 75.5t57 226.5q0 152 -57.5 227.5t-159.5 75.5q-100 0 -158 -76.5z" />
    <glyph glyph-name="uni1ED4" unicode="&#x1ed4;" horiz-adv-x="691" 
d="M448 886q35 2 52.5 12.5t17.5 34.5q0 19 -12.5 29.5t-34.5 10.5q-30 0 -58 -14l-16 36q36 21 81 21q43 0 68 -21.5t25 -57.5q0 -67 -75 -78v-46h-48v73zM345 807l-122 -80l-26 30l130 102h36l129 -102l-26 -30zM492 655.5q63 -40.5 98 -120.5t35 -193
q0 -111 -34.5 -190.5t-97.5 -121t-148 -41.5q-83 0 -146 41t-98 120t-35 191q0 111 35 191t98.5 122t145.5 42q84 0 147 -40.5zM187 568.5q-58 -76.5 -58 -227.5q0 -149 58.5 -225t157.5 -76q103 0 160 75.5t57 226.5q0 152 -57.5 227.5t-159.5 75.5q-100 0 -158 -76.5z" />
    <glyph glyph-name="uni1ED6" unicode="&#x1ed6;" horiz-adv-x="691" 
d="M370 902.5q-15 6.5 -37 19.5q-16 10 -26.5 15t-20.5 5q-17 0 -29.5 -9.5t-26.5 -30.5l-36 18q37 68 92 68q17 0 31.5 -6t32.5 -18q18 -11 29 -16t24 -5q16 0 28.5 10t27.5 33l36 -18q-35 -72 -92 -72q-18 0 -33 6.5zM344 807l-122 -80l-26 30l130 102h36l129 -102
l-26 -30zM492 655.5q63 -40.5 98 -120.5t35 -193q0 -111 -34.5 -190.5t-97.5 -121t-148 -41.5q-83 0 -146 41t-98 120t-35 191q0 111 35 191t98.5 122t145.5 42q84 0 147 -40.5zM187 568.5q-58 -76.5 -58 -227.5q0 -149 58.5 -225t157.5 -76q103 0 160 75.5t57 226.5
q0 152 -57.5 227.5t-159.5 75.5q-100 0 -158 -76.5z" />
    <glyph glyph-name="uni020C" unicode="&#x20c;" horiz-adv-x="691" 
d="M492 655.5q63 -40.5 98 -120.5t35 -193q0 -111 -34.5 -190.5t-97.5 -121t-148 -41.5q-83 0 -146 41t-98 120t-35 191q0 111 35 191t98.5 122t145.5 42q84 0 147 -40.5zM187 568.5q-58 -76.5 -58 -227.5q0 -149 58.5 -225t157.5 -76q103 0 160 75.5t57 226.5
q0 152 -57.5 227.5t-159.5 75.5q-100 0 -158 -76.5zM316 822l-38 -18l-93 142l52 27zM437 826l-38 -17l-84 136l52 28z" />
    <glyph glyph-name="Odieresis" unicode="&#xd6;" horiz-adv-x="691" 
d="M492 655.5q63 -40.5 98 -120.5t35 -193q0 -111 -34.5 -190.5t-97.5 -121t-148 -41.5q-83 0 -146 41t-98 120t-35 191q0 111 35 191t98.5 122t145.5 42q84 0 147 -40.5zM187 568.5q-58 -76.5 -58 -227.5q0 -149 58.5 -225t157.5 -76q103 0 160 75.5t57 226.5
q0 152 -57.5 227.5t-159.5 75.5q-100 0 -158 -76.5zM278.5 856.5q11.5 -11.5 11.5 -28.5t-11.5 -28t-28.5 -11t-28.5 11t-11.5 28t11.5 28.5t28.5 11.5t28.5 -11.5zM467.5 856.5q11.5 -11.5 11.5 -28.5t-11.5 -28t-28.5 -11t-28.5 11t-11.5 28t11.5 28.5t28.5 11.5
t28.5 -11.5z" />
    <glyph glyph-name="uni022A" unicode="&#x22a;" horiz-adv-x="691" 
d="M226 878v47h241v-47h-241zM278.5 811.5q11.5 -11.5 11.5 -28.5t-11.5 -28t-28.5 -11t-28.5 11t-11.5 28t11.5 28.5t28.5 11.5t28.5 -11.5zM467.5 811.5q11.5 -11.5 11.5 -28.5t-11.5 -28t-28.5 -11t-28.5 11t-11.5 28t11.5 28.5t28.5 11.5t28.5 -11.5zM492 655.5
q63 -40.5 98 -120.5t35 -193q0 -111 -34.5 -190.5t-97.5 -121t-148 -41.5q-83 0 -146 41t-98 120t-35 191q0 111 35 191t98.5 122t145.5 42q84 0 147 -40.5zM187 568.5q-58 -76.5 -58 -227.5q0 -149 58.5 -225t157.5 -76q103 0 160 75.5t57 226.5q0 152 -57.5 227.5
t-159.5 75.5q-100 0 -158 -76.5z" />
    <glyph glyph-name="uni022E" unicode="&#x22e;" horiz-adv-x="691" 
d="M492 655.5q63 -40.5 98 -120.5t35 -193q0 -111 -34.5 -190.5t-97.5 -121t-148 -41.5q-83 0 -146 41t-98 120t-35 191q0 111 35 191t98.5 122t145.5 42q84 0 147 -40.5zM187 568.5q-58 -76.5 -58 -227.5q0 -149 58.5 -225t157.5 -76q103 0 160 75.5t57 226.5
q0 152 -57.5 227.5t-159.5 75.5q-100 0 -158 -76.5zM377 867q12 -12 12 -30t-12 -30t-32 -12q-19 0 -31 12t-12 30t12 30t31 12q20 0 32 -12z" />
    <glyph glyph-name="uni0230" unicode="&#x230;" horiz-adv-x="691" 
d="M227 878v47h241v-47h-241zM378 814q12 -12 12 -30t-12 -30t-32 -12q-19 0 -31 12t-12 30t12 30t31 12q20 0 32 -12zM492 655.5q63 -40.5 98 -120.5t35 -193q0 -111 -34.5 -190.5t-97.5 -121t-148 -41.5q-83 0 -146 41t-98 120t-35 191q0 111 35 191t98.5 122t145.5 42
q84 0 147 -40.5zM187 568.5q-58 -76.5 -58 -227.5q0 -149 58.5 -225t157.5 -76q103 0 160 75.5t57 226.5q0 152 -57.5 227.5t-159.5 75.5q-100 0 -158 -76.5z" />
    <glyph glyph-name="uni1ECC" unicode="&#x1ecc;" horiz-adv-x="691" 
d="M492 655.5q63 -40.5 98 -120.5t35 -193q0 -111 -34.5 -190.5t-97.5 -121t-148 -41.5q-83 0 -146 41t-98 120t-35 191q0 111 35 191t98.5 122t145.5 42q84 0 147 -40.5zM187 568.5q-58 -76.5 -58 -227.5q0 -149 58.5 -225t157.5 -76q103 0 160 75.5t57 226.5
q0 152 -57.5 227.5t-159.5 75.5q-100 0 -158 -76.5zM314 -158q-12 12 -12 30t12 30t32 12q19 0 31 -12t12 -30t-12 -30t-31 -12q-20 0 -32 12z" />
    <glyph glyph-name="Ograve" unicode="&#xd2;" horiz-adv-x="691" 
d="M492 655.5q63 -40.5 98 -120.5t35 -193q0 -111 -34.5 -190.5t-97.5 -121t-148 -41.5q-83 0 -146 41t-98 120t-35 191q0 111 35 191t98.5 122t145.5 42q84 0 147 -40.5zM187 568.5q-58 -76.5 -58 -227.5q0 -149 58.5 -225t157.5 -76q103 0 160 75.5t57 226.5
q0 152 -57.5 227.5t-159.5 75.5q-100 0 -158 -76.5zM448 792l-16 -34l-198 78l26 52z" />
    <glyph glyph-name="uni1ECE" unicode="&#x1ece;" horiz-adv-x="691" 
d="M492 655.5q63 -40.5 98 -120.5t35 -193q0 -111 -34.5 -190.5t-97.5 -121t-148 -41.5q-83 0 -146 41t-98 120t-35 191q0 111 35 191t98.5 122t145.5 42q84 0 147 -40.5zM187 568.5q-58 -76.5 -58 -227.5q0 -149 58.5 -225t157.5 -76q103 0 160 75.5t57 226.5
q0 152 -57.5 227.5t-159.5 75.5q-100 0 -158 -76.5zM318 847q35 2 52.5 12.5t17.5 34.5q0 19 -12.5 29.5t-34.5 10.5q-30 0 -58 -14l-16 36q36 21 81 21q43 0 68 -21.5t25 -57.5q0 -67 -75 -78v-46h-48v73z" />
    <glyph glyph-name="Ohorn" unicode="&#x1a0;" horiz-adv-x="691" 
d="M613.5 626.5q-20.5 -24.5 -58.5 -29.5q70 -95 70 -255q0 -111 -34.5 -190.5t-97.5 -121t-148 -41.5q-83 0 -146 41t-98 120t-35 191q0 111 35 191t98.5 122t145.5 42q109 0 181 -67q30 4 44 18t14 39q0 37 -14 72l46 12q18 -34 18 -82q0 -37 -20.5 -61.5zM505 115.5
q57 75.5 57 226.5q0 152 -57.5 227.5t-159.5 75.5q-100 0 -158 -76.5t-58 -227.5q0 -149 58.5 -225t157.5 -76q103 0 160 75.5z" />
    <glyph glyph-name="uni1EDA" unicode="&#x1eda;" horiz-adv-x="691" 
d="M254 758l-16 34l187 96l27 -52zM613.5 626.5q-20.5 -24.5 -58.5 -29.5q70 -95 70 -255q0 -111 -34.5 -190.5t-97.5 -121t-148 -41.5q-83 0 -146 41t-98 120t-35 191q0 111 35 191t98.5 122t145.5 42q109 0 181 -67q30 4 44 18t14 39q0 37 -14 72l46 12q18 -34 18 -82
q0 -37 -20.5 -61.5zM505 115.5q57 75.5 57 226.5q0 152 -57.5 227.5t-159.5 75.5q-100 0 -158 -76.5t-58 -227.5q0 -149 58.5 -225t157.5 -76q103 0 160 75.5z" />
    <glyph glyph-name="uni1EE2" unicode="&#x1ee2;" horiz-adv-x="691" 
d="M613.5 626.5q-20.5 -24.5 -58.5 -29.5q70 -95 70 -255q0 -111 -34.5 -190.5t-97.5 -121t-148 -41.5q-83 0 -146 41t-98 120t-35 191q0 111 35 191t98.5 122t145.5 42q109 0 181 -67q30 4 44 18t14 39q0 37 -14 72l46 12q18 -34 18 -82q0 -37 -20.5 -61.5zM505 115.5
q57 75.5 57 226.5q0 152 -57.5 227.5t-159.5 75.5q-100 0 -158 -76.5t-58 -227.5q0 -149 58.5 -225t157.5 -76q103 0 160 75.5zM377 -98q12 -12 12 -30t-12 -30t-31 -12q-20 0 -32 12t-12 30t12 30t32 12q19 0 31 -12z" />
    <glyph glyph-name="uni1EDC" unicode="&#x1edc;" horiz-adv-x="691" 
d="M432 758l-198 78l26 52l188 -96zM613.5 626.5q-20.5 -24.5 -58.5 -29.5q70 -95 70 -255q0 -111 -34.5 -190.5t-97.5 -121t-148 -41.5q-83 0 -146 41t-98 120t-35 191q0 111 35 191t98.5 122t145.5 42q109 0 181 -67q30 4 44 18t14 39q0 37 -14 72l46 12q18 -34 18 -82
q0 -37 -20.5 -61.5zM505 115.5q57 75.5 57 226.5q0 152 -57.5 227.5t-159.5 75.5q-100 0 -158 -76.5t-58 -227.5q0 -149 58.5 -225t157.5 -76q103 0 160 75.5z" />
    <glyph glyph-name="uni1EDE" unicode="&#x1ede;" horiz-adv-x="691" 
d="M283 920l-16 36q36 21 81 21q43 0 68 -21.5t25 -57.5q0 -67 -75 -78v-46h-48v73q35 2 52.5 12.5t17.5 34.5q0 19 -12.5 29.5t-34.5 10.5q-30 0 -58 -14zM613.5 626.5q-20.5 -24.5 -58.5 -29.5q70 -95 70 -255q0 -111 -34.5 -190.5t-97.5 -121t-148 -41.5q-83 0 -146 41
t-98 120t-35 191q0 111 35 191t98.5 122t145.5 42q109 0 181 -67q30 4 44 18t14 39q0 37 -14 72l46 12q18 -34 18 -82q0 -37 -20.5 -61.5zM505 115.5q57 75.5 57 226.5q0 152 -57.5 227.5t-159.5 75.5q-100 0 -158 -76.5t-58 -227.5q0 -149 58.5 -225t157.5 -76
q103 0 160 75.5z" />
    <glyph glyph-name="uni1EE0" unicode="&#x1ee0;" horiz-adv-x="691" 
d="M257.5 828.5q-12.5 -9.5 -26.5 -30.5l-36 18q37 68 92 68q17 0 31.5 -6t32.5 -18q18 -11 29 -16t24 -5q16 0 28.5 10t27.5 33l36 -18q-35 -72 -92 -72q-18 0 -33 6.5t-37 19.5q-16 10 -26.5 15t-20.5 5q-17 0 -29.5 -9.5zM613.5 626.5q-20.5 -24.5 -58.5 -29.5
q70 -95 70 -255q0 -111 -34.5 -190.5t-97.5 -121t-148 -41.5q-83 0 -146 41t-98 120t-35 191q0 111 35 191t98.5 122t145.5 42q109 0 181 -67q30 4 44 18t14 39q0 37 -14 72l46 12q18 -34 18 -82q0 -37 -20.5 -61.5zM505 115.5q57 75.5 57 226.5q0 152 -57.5 227.5
t-159.5 75.5q-100 0 -158 -76.5t-58 -227.5q0 -149 58.5 -225t157.5 -76q103 0 160 75.5z" />
    <glyph glyph-name="Ohungarumlaut" unicode="&#x150;" horiz-adv-x="691" 
d="M492 655.5q63 -40.5 98 -120.5t35 -193q0 -111 -34.5 -190.5t-97.5 -121t-148 -41.5q-83 0 -146 41t-98 120t-35 191q0 111 35 191t98.5 122t145.5 42q84 0 147 -40.5zM187 568.5q-58 -76.5 -58 -227.5q0 -149 58.5 -225t157.5 -76q103 0 160 75.5t57 226.5
q0 152 -57.5 227.5t-159.5 75.5q-100 0 -158 -76.5zM377 909l-85 -136l-38 17l71 147zM506 910l-93 -142l-38 18l79 151z" />
    <glyph glyph-name="uni01A2" unicode="&#x1a2;" horiz-adv-x="903" 
d="M755.5 661q36.5 -36 36.5 -108v-750h-60v751q0 51 -21.5 73t-63.5 22q-30 0 -56.5 -8t-54.5 -24q43 -45 66 -114.5t23 -160.5q0 -111 -34.5 -190.5t-97.5 -121t-148 -41.5q-83 0 -146 41t-98 120t-35 191q0 111 35 191t98.5 122t145.5 42q91 0 157 -48q37 24 72.5 36.5
t75.5 12.5q69 0 105.5 -36zM505 115.5q57 75.5 57 226.5q0 152 -57.5 227.5t-159.5 75.5q-100 0 -158 -76.5t-58 -227.5q0 -149 58.5 -225t157.5 -76q103 0 160 75.5z" />
    <glyph glyph-name="uni020E" unicode="&#x20e;" horiz-adv-x="691" 
d="M492 655.5q63 -40.5 98 -120.5t35 -193q0 -111 -34.5 -190.5t-97.5 -121t-148 -41.5q-83 0 -146 41t-98 120t-35 191q0 111 35 191t98.5 122t145.5 42q84 0 147 -40.5zM187 568.5q-58 -76.5 -58 -227.5q0 -149 58.5 -225t157.5 -76q103 0 160 75.5t57 226.5
q0 152 -57.5 227.5t-159.5 75.5q-100 0 -158 -76.5zM433 874q36 -30 43 -80l-40 -9q-20 72 -91 72q-70 0 -90 -72l-40 9q7 50 42.5 80t87.5 30t88 -30z" />
    <glyph glyph-name="Omacron" unicode="&#x14c;" horiz-adv-x="691" 
d="M492 655.5q63 -40.5 98 -120.5t35 -193q0 -111 -34.5 -190.5t-97.5 -121t-148 -41.5q-83 0 -146 41t-98 120t-35 191q0 111 35 191t98.5 122t145.5 42q84 0 147 -40.5zM187 568.5q-58 -76.5 -58 -227.5q0 -149 58.5 -225t157.5 -76q103 0 160 75.5t57 226.5
q0 152 -57.5 227.5t-159.5 75.5q-100 0 -158 -76.5zM225 802v47h241v-47h-241z" />
    <glyph glyph-name="uni1E52" unicode="&#x1e52;" horiz-adv-x="691" 
d="M454 935l-198 -78l-16 34l187 96zM225 763v47h241v-47h-241zM492 655.5q63 -40.5 98 -120.5t35 -193q0 -111 -34.5 -190.5t-97.5 -121t-148 -41.5q-83 0 -146 41t-98 120t-35 191q0 111 35 191t98.5 122t145.5 42q84 0 147 -40.5zM187 568.5q-58 -76.5 -58 -227.5
q0 -149 58.5 -225t157.5 -76q103 0 160 75.5t57 226.5q0 152 -57.5 227.5t-159.5 75.5q-100 0 -158 -76.5z" />
    <glyph glyph-name="uni1E50" unicode="&#x1e50;" horiz-adv-x="691" 
d="M450 891l-16 -34l-198 78l26 52zM225 763v47h241v-47h-241zM492 655.5q63 -40.5 98 -120.5t35 -193q0 -111 -34.5 -190.5t-97.5 -121t-148 -41.5q-83 0 -146 41t-98 120t-35 191q0 111 35 191t98.5 122t145.5 42q84 0 147 -40.5zM187 568.5q-58 -76.5 -58 -227.5
q0 -149 58.5 -225t157.5 -76q103 0 160 75.5t57 226.5q0 152 -57.5 227.5t-159.5 75.5q-100 0 -158 -76.5z" />
    <glyph glyph-name="uni01EA" unicode="&#x1ea;" horiz-adv-x="691" 
d="M572.5 116q-52.5 -89 -145.5 -116q-67 -30 -94.5 -56.5t-27.5 -61.5q0 -24 15 -38t47 -14q27 0 59 7l-6 -48q-35 -7 -58 -7q-53 0 -82 25.5t-29 66.5q0 36 20 64t62 51q-80 3 -140 45t-93.5 120t-33.5 187q0 111 35 191t98.5 122t145.5 42q84 0 147 -40.5t98 -120.5
t35 -193q0 -137 -52.5 -226zM505 115.5q57 75.5 57 226.5q0 152 -57.5 227.5t-159.5 75.5q-100 0 -158 -76.5t-58 -227.5q0 -149 58.5 -225t157.5 -76q103 0 160 75.5z" />
    <glyph glyph-name="uni01EC" unicode="&#x1ec;" horiz-adv-x="691" 
d="M466 802h-241v47h241v-47zM572.5 116q-52.5 -89 -145.5 -116q-67 -30 -94.5 -56.5t-27.5 -61.5q0 -24 15 -38t47 -14q27 0 59 7l-6 -48q-35 -7 -58 -7q-53 0 -82 25.5t-29 66.5q0 36 20 64t62 51q-80 3 -140 45t-93.5 120t-33.5 187q0 111 35 191t98.5 122t145.5 42
q84 0 147 -40.5t98 -120.5t35 -193q0 -137 -52.5 -226zM505 115.5q57 75.5 57 226.5q0 152 -57.5 227.5t-159.5 75.5q-100 0 -158 -76.5t-58 -227.5q0 -149 58.5 -225t157.5 -76q103 0 160 75.5z" />
    <glyph glyph-name="uni0186" unicode="&#x186;" horiz-adv-x="550" 
d="M362 656q58 -40 90 -119t32 -194q0 -112 -35.5 -192t-97.5 -121t-142 -41q-108 0 -186 71l31 38q38 -28 72.5 -42t81.5 -14q61 0 109 32.5t76 100.5t28 168q0 155 -54 228.5t-145 73.5q-86 0 -160 -51l-31 39q84 63 195 63q78 0 136 -40z" />
    <glyph glyph-name="Oslash" unicode="&#xd8;" horiz-adv-x="691" 
d="M584 548.5q41 -83.5 41 -206.5q0 -111 -34.5 -190.5t-97.5 -121t-148 -41.5q-37 0 -77 10l-33 -119l-53 15l38 123q-73 37 -113.5 119.5t-40.5 203.5q0 111 35 191t98.5 122t145.5 42q40 0 76 -9l35 123l53 -14l-40 -127q74 -37 115 -120.5zM158 166.5
q29 -68.5 83 -100.5l169 570q-30 9 -65 9q-100 0 -158 -76.5t-58 -227.5q0 -106 29 -174.5zM505 115.5q57 75.5 57 226.5q0 216 -114 279l-169 -571q30 -10 66 -10q103 0 160 75.5z" />
    <glyph glyph-name="Oslashacute" unicode="&#x1fe;" horiz-adv-x="691" 
d="M584 548.5q41 -83.5 41 -206.5q0 -111 -34.5 -190.5t-97.5 -121t-148 -41.5q-37 0 -77 10l-33 -119l-53 15l38 123q-73 37 -113.5 119.5t-40.5 203.5q0 111 35 191t98.5 122t145.5 42q40 0 76 -9l35 123l53 -14l-40 -127q74 -37 115 -120.5zM158 166.5
q29 -68.5 83 -100.5l169 570q-30 9 -65 9q-100 0 -158 -76.5t-58 -227.5q0 -106 29 -174.5zM505 115.5q57 75.5 57 226.5q0 216 -114 279l-169 -571q30 -10 66 -10q103 0 160 75.5zM445 848l-198 -78l-16 34l187 96z" />
    <glyph glyph-name="Otilde" unicode="&#xd5;" horiz-adv-x="691" 
d="M492 655.5q63 -40.5 98 -120.5t35 -193q0 -111 -34.5 -190.5t-97.5 -121t-148 -41.5q-83 0 -146 41t-98 120t-35 191q0 111 35 191t98.5 122t145.5 42q84 0 147 -40.5zM187 568.5q-58 -76.5 -58 -227.5q0 -149 58.5 -225t157.5 -76q103 0 160 75.5t57 226.5
q0 152 -57.5 227.5t-159.5 75.5q-100 0 -158 -76.5zM371 798.5q-15 6.5 -37 19.5q-16 10 -26.5 15t-20.5 5q-17 0 -29.5 -9.5t-26.5 -30.5l-36 18q37 68 92 68q17 0 31.5 -6t32.5 -18q18 -11 29 -16t24 -5q16 0 28.5 10t27.5 33l36 -18q-35 -72 -92 -72q-18 0 -33 6.5z" />
    <glyph glyph-name="uni1E4C" unicode="&#x1e4c;" horiz-adv-x="691" 
d="M452 957l-198 -78l-16 34l187 96zM371 763.5q-15 6.5 -37 19.5q-16 10 -26.5 15t-20.5 5q-17 0 -29.5 -9.5t-26.5 -30.5l-36 18q37 68 92 68q17 0 31.5 -6t32.5 -18q18 -11 29 -16t24 -5q16 0 28.5 10t27.5 33l36 -18q-35 -72 -92 -72q-18 0 -33 6.5zM492 655.5
q63 -40.5 98 -120.5t35 -193q0 -111 -34.5 -190.5t-97.5 -121t-148 -41.5q-83 0 -146 41t-98 120t-35 191q0 111 35 191t98.5 122t145.5 42q84 0 147 -40.5zM187 568.5q-58 -76.5 -58 -227.5q0 -149 58.5 -225t157.5 -76q103 0 160 75.5t57 226.5q0 152 -57.5 227.5
t-159.5 75.5q-100 0 -158 -76.5z" />
    <glyph glyph-name="uni022C" unicode="&#x22c;" horiz-adv-x="691" 
d="M225 894v47h241v-47h-241zM371 763.5q-15 6.5 -37 19.5q-16 10 -26.5 15t-20.5 5q-17 0 -29.5 -9.5t-26.5 -30.5l-36 18q37 68 92 68q17 0 31.5 -6t32.5 -18q18 -11 29 -16t24 -5q16 0 28.5 10t27.5 33l36 -18q-35 -72 -92 -72q-18 0 -33 6.5zM492 655.5
q63 -40.5 98 -120.5t35 -193q0 -111 -34.5 -190.5t-97.5 -121t-148 -41.5q-83 0 -146 41t-98 120t-35 191q0 111 35 191t98.5 122t145.5 42q84 0 147 -40.5zM187 568.5q-58 -76.5 -58 -227.5q0 -149 58.5 -225t157.5 -76q103 0 160 75.5t57 226.5q0 152 -57.5 227.5
t-159.5 75.5q-100 0 -158 -76.5z" />
    <glyph glyph-name="OE" unicode="&#x152;" horiz-adv-x="875" 
d="M824 0h-421q-35 -11 -69 -11q-78 0 -138.5 41t-95 120.5t-34.5 190.5q0 110 34.5 190.5t95.5 122.5t138 42q36 0 72 -11h411l-7 -50h-317q50 -38 78.5 -103t32.5 -152h168v-50h-167q-2 -97 -31.5 -168t-83.5 -112h334v-50zM155.5 174q26.5 -68 73 -101t106.5 -33
q96 0 151.5 77t55.5 230q0 147 -56 222.5t-151 75.5q-93 0 -149.5 -77t-56.5 -227q0 -99 26.5 -167z" />
    <glyph glyph-name="P" unicode="P" horiz-adv-x="570" 
d="M459.5 634.5q65.5 -50.5 65.5 -154.5q0 -110 -68.5 -161.5t-187.5 -51.5h-98v-267h-60v685h161q122 0 187.5 -50.5zM412 353q50 37 50 126q0 84 -48.5 120.5t-142.5 36.5h-100v-320h98q93 0 143 37z" />
    <glyph glyph-name="uni1E54" unicode="&#x1e54;" horiz-adv-x="570" 
d="M459.5 634.5q65.5 -50.5 65.5 -154.5q0 -110 -68.5 -161.5t-187.5 -51.5h-98v-267h-60v685h161q122 0 187.5 -50.5zM412 353q50 37 50 126q0 84 -48.5 120.5t-142.5 36.5h-100v-320h98q93 0 143 37zM392 836l-198 -78l-16 34l187 96z" />
    <glyph glyph-name="uni1E56" unicode="&#x1e56;" horiz-adv-x="570" 
d="M459.5 634.5q65.5 -50.5 65.5 -154.5q0 -110 -68.5 -161.5t-187.5 -51.5h-98v-267h-60v685h161q122 0 187.5 -50.5zM412 353q50 37 50 126q0 84 -48.5 120.5t-142.5 36.5h-100v-320h98q93 0 143 37zM317 867q12 -12 12 -30t-12 -30t-32 -12q-19 0 -31 12t-12 30t12 30
t31 12q20 0 32 -12z" />
    <glyph glyph-name="uni01A4" unicode="&#x1a4;" horiz-adv-x="630" 
d="M519.5 634.5q65.5 -50.5 65.5 -154.5q0 -110 -68.5 -161.5t-187.5 -51.5h-98v-267h-60v636h-29q-36 0 -53.5 -17t-17.5 -46q0 -20 5.5 -36t16.5 -39l-42 -22q-18 27 -27 48t-9 50q0 50 34 80.5t97 30.5h26h160q122 0 187.5 -50.5zM472 353q50 37 50 126q0 84 -48.5 120.5
t-142.5 36.5h-100v-320h98q93 0 143 37z" />
    <glyph glyph-name="Thorn" unicode="&#xde;" horiz-adv-x="570" 
d="M460 512q65 -51 65 -156q0 -114 -68.5 -167t-187.5 -53h-98v-136h-60v685h60v-122h101q123 0 188 -51zM412 223.5q50 37.5 50 131.5q0 85 -48 121.5t-143 36.5h-100v-327h98q93 0 143 37.5z" />
    <glyph glyph-name="Q" unicode="Q" horiz-adv-x="681" 
d="M559.5 6.5q50.5 -16.5 89.5 -48.5l-40 -51q-54 48 -112 66t-152 18q-83 0 -146 40.5t-98 119t-35 190.5q0 111 35 191t98.5 122t145.5 42q84 0 147 -40.5t98 -120.5t35 -193q0 -255 -173 -318q57 -1 107.5 -17.5zM187.5 116q58.5 -76 157.5 -76q103 0 160 75.5t57 226.5
q0 152 -57.5 227.5t-159.5 75.5q-100 0 -158 -76.5t-58 -227.5q0 -149 58.5 -225z" />
    <glyph glyph-name="uni024A" unicode="&#x24a;" horiz-adv-x="660" 
d="M716 -171q-44 -34 -102 -34q-57 0 -91 34t-34 100v134q-63 -74 -168 -74q-72 0 -130 38.5t-91.5 114.5t-33.5 184q0 116 34.5 200t93 127t131.5 43q101 0 166 -71l5 60h53v-757q0 -44 18 -64t49 -20q24 0 41 6t34 18zM417 59q40 19 72 57v455q-60 74 -159 74
q-90 0 -145.5 -80t-55.5 -239q0 -142 54.5 -214t142.5 -72q51 0 91 19z" />
    <glyph glyph-name="R" unicode="R" horiz-adv-x="590" 
d="M308 307h-137v-307h-60v685h166q244 0 244 -186q0 -74 -39 -118t-114 -63l188 -318h-72zM285 356q172 0 172 143q0 70 -43 103.5t-139 33.5h-104v-280h114z" />
    <glyph glyph-name="Racute" unicode="&#x154;" horiz-adv-x="590" 
d="M308 307h-137v-307h-60v685h166q244 0 244 -186q0 -74 -39 -118t-114 -63l188 -318h-72zM285 356q172 0 172 143q0 70 -43 103.5t-139 33.5h-104v-280h114zM401 836l-198 -78l-16 34l187 96z" />
    <glyph glyph-name="Rcaron" unicode="&#x158;" horiz-adv-x="590" 
d="M308 307h-137v-307h-60v685h166q244 0 244 -186q0 -74 -39 -118t-114 -63l188 -318h-72zM285 356q172 0 172 143q0 70 -43 103.5t-139 33.5h-104v-280h114zM441 857l-129 -101h-36l-130 101l26 31l122 -80l121 80z" />
    <glyph glyph-name="Rcommaaccent" unicode="&#x156;" horiz-adv-x="590" 
d="M308 307h-137v-307h-60v685h166q244 0 244 -186q0 -74 -39 -118t-114 -63l188 -318h-72zM285 356q172 0 172 143q0 70 -43 103.5t-139 33.5h-104v-280h114zM338.5 -97q12.5 -12 12.5 -30q0 -12 -4.5 -24.5t-17.5 -41.5l-40 -86h-36l32 114q-22 14 -22 38q0 18 12.5 30
t31.5 12t31.5 -12z" />
    <glyph glyph-name="uni0210" unicode="&#x210;" horiz-adv-x="590" 
d="M308 307h-137v-307h-60v685h166q244 0 244 -186q0 -74 -39 -118t-114 -63l188 -318h-72zM285 356q172 0 172 143q0 70 -43 103.5t-139 33.5h-104v-280h114zM264 822l-38 -18l-93 142l52 27zM385 826l-38 -17l-84 136l52 28z" />
    <glyph glyph-name="uni1E5A" unicode="&#x1e5a;" horiz-adv-x="590" 
d="M308 307h-137v-307h-60v685h166q244 0 244 -186q0 -74 -39 -118t-114 -63l188 -318h-72zM285 356q172 0 172 143q0 70 -43 103.5t-139 33.5h-104v-280h114zM275 -158q-12 12 -12 30t12 30t32 12q19 0 31 -12t12 -30t-12 -30t-31 -12q-20 0 -32 12z" />
    <glyph glyph-name="uni0212" unicode="&#x212;" horiz-adv-x="590" 
d="M308 307h-137v-307h-60v685h166q244 0 244 -186q0 -74 -39 -118t-114 -63l188 -318h-72zM285 356q172 0 172 143q0 70 -43 103.5t-139 33.5h-104v-280h114zM381 874q36 -30 43 -80l-40 -9q-20 72 -91 72q-70 0 -90 -72l-40 9q7 50 42.5 80t87.5 30t88 -30z" />
    <glyph glyph-name="uni024C" unicode="&#x24c;" horiz-adv-x="592" 
d="M311 307h-137v-307h-60v307h-91v49h91v329h166q243 0 243 -186q0 -74 -38.5 -118t-113.5 -63l188 -318h-72zM460 499q0 70 -43 103.5t-140 33.5h-103v-280h114q172 0 172 143z" />
    <glyph glyph-name="uni2C64" unicode="&#x2c64;" horiz-adv-x="590" 
d="M171 307v-379q0 -44 18 -64t49 -20q24 0 41 6t35 18l24 -39q-44 -34 -102 -34q-57 0 -91 34t-34 100v756h166q244 0 244 -186q0 -74 -39 -118t-114 -63l188 -318h-72l-176 307h-137zM171 636v-280h114q172 0 172 143q0 70 -43 103.5t-139 33.5h-104z" />
    <glyph glyph-name="uni2C64.ss01" horiz-adv-x="408" 
d="M232.5 599q-39.5 -39 -61.5 -121v-550q0 -44 18 -64t49 -20q24 0 41 6t35 18l24 -39q-44 -34 -102 -34q-57 0 -91 34t-34 100v756h52l4 -111q48 122 169 122q37 0 66 -9l-13 -56q-28 7 -57 7q-60 0 -99.5 -39z" />
    <glyph glyph-name="S" unicode="S" horiz-adv-x="539" 
d="M375.5 677.5q45.5 -18.5 88.5 -57.5l-35 -38q-39 33 -76 48t-84 15q-64 0 -103 -31.5t-39 -84.5q0 -36 14.5 -59.5t48.5 -42t97 -37.5q68 -21 110 -45t65 -62t23 -96t-28 -103t-79.5 -70t-119.5 -25q-128 0 -219 86l35 38q41 -36 84 -54.5t99 -18.5q74 0 120.5 39
t46.5 106q0 42 -15.5 69t-50 46.5t-97.5 39.5q-105 32 -150 74t-45 114q0 48 25.5 86.5t71 60t104.5 21.5q63 0 108.5 -18.5z" />
    <glyph glyph-name="Sacute" unicode="&#x15a;" horiz-adv-x="539" 
d="M375.5 677.5q45.5 -18.5 88.5 -57.5l-35 -38q-39 33 -76 48t-84 15q-64 0 -103 -31.5t-39 -84.5q0 -36 14.5 -59.5t48.5 -42t97 -37.5q68 -21 110 -45t65 -62t23 -96t-28 -103t-79.5 -70t-119.5 -25q-128 0 -219 86l35 38q41 -36 84 -54.5t99 -18.5q74 0 120.5 39
t46.5 106q0 42 -15.5 69t-50 46.5t-97.5 39.5q-105 32 -150 74t-45 114q0 48 25.5 86.5t71 60t104.5 21.5q63 0 108.5 -18.5zM378 836l-198 -78l-16 34l187 96z" />
    <glyph glyph-name="Sacute.loclPLK" horiz-adv-x="539" 
d="M375.5 677.5q45.5 -18.5 88.5 -57.5l-35 -38q-39 33 -76 48t-84 15q-64 0 -103 -31.5t-39 -84.5q0 -36 14.5 -59.5t48.5 -42t97 -37.5q68 -21 110 -45t65 -62t23 -96t-28 -103t-79.5 -70t-119.5 -25q-128 0 -219 86l35 38q41 -36 84 -54.5t99 -18.5q74 0 120.5 39
t46.5 106q0 42 -15.5 69t-50 46.5t-97.5 39.5q-105 32 -150 74t-45 114q0 48 25.5 86.5t71 60t104.5 21.5q63 0 108.5 -18.5zM381 877l-120 -145l-30 19l102 157z" />
    <glyph glyph-name="uniA78B" unicode="&#xa78b;" horiz-adv-x="207" 
d="M71 685h65l-8 -331h-49z" />
    <glyph glyph-name="Scaron" unicode="&#x160;" horiz-adv-x="539" 
d="M375.5 677.5q45.5 -18.5 88.5 -57.5l-35 -38q-39 33 -76 48t-84 15q-64 0 -103 -31.5t-39 -84.5q0 -36 14.5 -59.5t48.5 -42t97 -37.5q68 -21 110 -45t65 -62t23 -96t-28 -103t-79.5 -70t-119.5 -25q-128 0 -219 86l35 38q41 -36 84 -54.5t99 -18.5q74 0 120.5 39
t46.5 106q0 42 -15.5 69t-50 46.5t-97.5 39.5q-105 32 -150 74t-45 114q0 48 25.5 86.5t71 60t104.5 21.5q63 0 108.5 -18.5zM419 857l-129 -101h-36l-130 101l26 31l122 -80l121 80z" />
    <glyph glyph-name="Scedilla" unicode="&#x15e;" horiz-adv-x="539" 
d="M429.5 50q-55.5 -54 -149.5 -60v-54q47 -4 69.5 -24t22.5 -52q0 -41 -30 -64t-75 -23q-48 0 -80 21l18 36q27 -15 61 -15q24 0 39.5 11t15.5 34q0 22 -21.5 33t-67.5 11l8 86q-117 5 -201 85l35 38q41 -36 84 -54.5t99 -18.5q74 0 120.5 39t46.5 106q0 42 -15.5 69
t-50 46.5t-97.5 39.5q-105 32 -150 74t-45 114q0 48 25.5 86.5t71 60t104.5 21.5q63 0 108.5 -18.5t88.5 -57.5l-35 -38q-39 33 -76 48t-84 15q-64 0 -103 -31.5t-39 -84.5q0 -36 14.5 -59.5t48.5 -42t97 -37.5q68 -21 110 -45t65 -62t23 -96q0 -83 -55.5 -137z" />
    <glyph glyph-name="Scircumflex" unicode="&#x15c;" horiz-adv-x="539" 
d="M375.5 677.5q45.5 -18.5 88.5 -57.5l-35 -38q-39 33 -76 48t-84 15q-64 0 -103 -31.5t-39 -84.5q0 -36 14.5 -59.5t48.5 -42t97 -37.5q68 -21 110 -45t65 -62t23 -96t-28 -103t-79.5 -70t-119.5 -25q-128 0 -219 86l35 38q41 -36 84 -54.5t99 -18.5q74 0 120.5 39
t46.5 106q0 42 -15.5 69t-50 46.5t-97.5 39.5q-105 32 -150 74t-45 114q0 48 25.5 86.5t71 60t104.5 21.5q63 0 108.5 -18.5zM271 842l-122 -80l-26 30l130 102h36l129 -102l-26 -30z" />
    <glyph glyph-name="Scommaaccent" unicode="&#x218;" horiz-adv-x="539" 
d="M375.5 677.5q45.5 -18.5 88.5 -57.5l-35 -38q-39 33 -76 48t-84 15q-64 0 -103 -31.5t-39 -84.5q0 -36 14.5 -59.5t48.5 -42t97 -37.5q68 -21 110 -45t65 -62t23 -96t-28 -103t-79.5 -70t-119.5 -25q-128 0 -219 86l35 38q41 -36 84 -54.5t99 -18.5q74 0 120.5 39
t46.5 106q0 42 -15.5 69t-50 46.5t-97.5 39.5q-105 32 -150 74t-45 114q0 48 25.5 86.5t71 60t104.5 21.5q63 0 108.5 -18.5zM295.5 -97q12.5 -12 12.5 -30q0 -12 -4.5 -24.5t-17.5 -41.5l-40 -86h-36l32 114q-22 14 -22 38q0 18 12.5 30t31.5 12t31.5 -12z" />
    <glyph glyph-name="uni1E60" unicode="&#x1e60;" horiz-adv-x="539" 
d="M375.5 677.5q45.5 -18.5 88.5 -57.5l-35 -38q-39 33 -76 48t-84 15q-64 0 -103 -31.5t-39 -84.5q0 -36 14.5 -59.5t48.5 -42t97 -37.5q68 -21 110 -45t65 -62t23 -96t-28 -103t-79.5 -70t-119.5 -25q-128 0 -219 86l35 38q41 -36 84 -54.5t99 -18.5q74 0 120.5 39
t46.5 106q0 42 -15.5 69t-50 46.5t-97.5 39.5q-105 32 -150 74t-45 114q0 48 25.5 86.5t71 60t104.5 21.5q63 0 108.5 -18.5zM303 867q12 -12 12 -30t-12 -30t-32 -12q-19 0 -31 12t-12 30t12 30t31 12q20 0 32 -12z" />
    <glyph glyph-name="uni1E62" unicode="&#x1e62;" horiz-adv-x="539" 
d="M375.5 677.5q45.5 -18.5 88.5 -57.5l-35 -38q-39 33 -76 48t-84 15q-64 0 -103 -31.5t-39 -84.5q0 -36 14.5 -59.5t48.5 -42t97 -37.5q68 -21 110 -45t65 -62t23 -96t-28 -103t-79.5 -70t-119.5 -25q-128 0 -219 86l35 38q41 -36 84 -54.5t99 -18.5q74 0 120.5 39
t46.5 106q0 42 -15.5 69t-50 46.5t-97.5 39.5q-105 32 -150 74t-45 114q0 48 25.5 86.5t71 60t104.5 21.5q63 0 108.5 -18.5zM233 -158q-12 12 -12 30t12 30t32 12q19 0 31 -12t12 -30t-12 -30t-31 -12q-20 0 -32 12z" />
    <glyph glyph-name="uni1E9E" unicode="&#x1e9e;" horiz-adv-x="649" 
d="M553 628v-41l-189 -202q232 -24 232 -199q0 -92 -56.5 -144.5t-151.5 -52.5q-71 0 -115 23l20 43q45 -15 92 -15q70 0 109 37.5t39 108.5q0 77 -56 114t-172 43v49l192 210q-44 20 -86.5 31.5t-89.5 11.5q-150 0 -150 -155v-490h-60v492q0 97 55 150.5t154 53.5
q113 0 233 -68z" />
    <glyph glyph-name="uni018F" unicode="&#x18f;" horiz-adv-x="648" 
d="M512.5 610q69.5 -86 69.5 -264q0 -177 -72 -267t-193 -90q-124 0 -192.5 88t-68.5 255q0 26 2 41h461q-5 142 -57 207t-147 65q-53 0 -97.5 -17t-87.5 -52l-32 38q49 42 101.5 62t117.5 20q126 0 195.5 -86zM461 108.5q54 69.5 58 215.5h-402q1 -144 53.5 -214.5
t146.5 -70.5q90 0 144 69.5z" />
    <glyph glyph-name="T" unicode="T" horiz-adv-x="495" 
d="M478 632h-201v-632h-59v632h-203v53h470z" />
    <glyph glyph-name="Tbar" unicode="&#x166;" horiz-adv-x="500" 
d="M277 631v-247h125v-47h-125v-338h-59v338h-124v47h124v247h-203v53h470l-7 -53h-201z" />
    <glyph glyph-name="Tcaron" unicode="&#x164;" horiz-adv-x="495" 
d="M478 632h-201v-632h-59v632h-203v53h470zM395 857l-129 -101h-36l-130 101l26 31l122 -80l121 80z" />
    <glyph glyph-name="uni0162" unicode="&#x162;" horiz-adv-x="495" 
d="M347 -88q23 -20 23 -52q0 -41 -30.5 -64t-76.5 -23q-47 0 -78 21l18 36q27 -15 59 -15q25 0 41 11t16 34q0 22 -21.5 33t-67.5 11l9 96h-21v632h-203v53h470l-7 -53h-201v-696q47 -4 70 -24z" />
    <glyph glyph-name="uni1E70" unicode="&#x1e70;" horiz-adv-x="495" 
d="M478 632h-201v-632h-59v632h-203v53h470zM100 -176l129 106h36l130 -106l-26 -30l-122 85l-121 -85z" />
    <glyph glyph-name="uni021A" unicode="&#x21a;" horiz-adv-x="495" 
d="M478 632h-201v-632h-59v632h-203v53h470zM279.5 -97q12.5 -12 12.5 -30q0 -12 -4.5 -24.5t-17.5 -41.5l-40 -86h-36l32 114q-22 14 -22 38q0 18 12.5 30t31.5 12t31.5 -12z" />
    <glyph glyph-name="uni023E" unicode="&#x23e;" horiz-adv-x="495" 
d="M367 632l-90 -272v-360h-59v183l-84 -253l-32 11l116 350v341h-203v53h334l21 62l32 -11l-17 -51h100l-7 -53h-111zM332 632h-55v-164z" />
    <glyph glyph-name="uni1E6A" unicode="&#x1e6a;" horiz-adv-x="495" 
d="M478 632h-201v-632h-59v632h-203v53h470zM279 867q12 -12 12 -30t-12 -30t-32 -12q-19 0 -31 12t-12 30t12 30t31 12q20 0 32 -12z" />
    <glyph glyph-name="uni1E6C" unicode="&#x1e6c;" horiz-adv-x="495" 
d="M478 632h-201v-632h-59v632h-203v53h470zM216 -158q-12 12 -12 30t12 30t32 12q19 0 31 -12t12 -30t-12 -30t-31 -12q-20 0 -32 12z" />
    <glyph glyph-name="uni01AC" unicode="&#x1ac;" horiz-adv-x="523" 
d="M506 632h-200v-632h-60v632h-103q-36 0 -53.5 -16t-17.5 -44q0 -20 5.5 -35t16.5 -38l-44 -23q-17 26 -26 47.5t-9 49.5q0 51 35 81.5t99 30.5h364z" />
    <glyph glyph-name="uni1E6E" unicode="&#x1e6e;" horiz-adv-x="495" 
d="M478 632h-201v-632h-59v632h-203v53h470zM127 -159v47h241v-47h-241z" />
    <glyph glyph-name="uni01BC" unicode="&#x1bc;" horiz-adv-x="496" 
d="M415 637h-280v-239q53 33 121 33q88 0 139 -56t51 -156q0 -68 -26.5 -120t-76.5 -81t-117 -29q-115 0 -192 83l38 35q31 -36 68 -52.5t86 -16.5q74 0 116.5 48.5t42.5 133.5q0 83 -38 123.5t-104 40.5q-34 0 -60 -7.5t-58 -24.5h-46v333h345z" />
    <glyph glyph-name="uni0184" unicode="&#x184;" horiz-adv-x="561" 
d="M461 371.5q64 -51.5 64 -153.5q0 -111 -66 -164.5t-181 -53.5h-167v549l-53 35q41 44 60 101h52v-262h110q117 0 181 -51.5zM416 89q46 39 46 128q0 82 -46 119.5t-134 37.5h-112v-324h116q84 0 130 39z" />
    <glyph glyph-name="uni01A7" unicode="&#x1a7;" horiz-adv-x="530" 
d="M421 651q52 -45 52 -118t-45 -114.5t-150 -76.5q-62 -20 -97 -41.5t-50 -50t-15 -70.5q0 -66 44 -103t112 -37q57 0 101 18.5t84 53.5l35 -37q-45 -42 -99 -64t-122 -22q-63 0 -112.5 24t-77 68t-27.5 100q0 83 48.5 128.5t149.5 78.5q63 20 96.5 39t48 43.5t14.5 62.5
q0 54 -35 83t-97 29q-50 0 -89 -14.5t-81 -47.5l-34 37q48 39 95 57.5t111 18.5q88 0 140 -45z" />
    <glyph glyph-name="uni01AE" unicode="&#x1ae;" horiz-adv-x="495" 
d="M277 632v-631h1v-73q0 -44 18 -64t49 -20q24 0 41 6t35 18l24 -39q-44 -34 -102 -34q-57 0 -91 34t-34 100v703h-203v53h470l-7 -53h-201z" />
    <glyph glyph-name="U" unicode="U" horiz-adv-x="652" 
d="M551 214q0 -102 -58 -163.5t-167 -61.5q-110 0 -167.5 61t-57.5 164v471h60v-466q0 -86 40.5 -132t124.5 -46t124 46.5t40 131.5v466h61v-471z" />
    <glyph glyph-name="Uacute" unicode="&#xda;" horiz-adv-x="652" 
d="M551 214q0 -102 -58 -163.5t-167 -61.5q-110 0 -167.5 61t-57.5 164v471h60v-466q0 -86 40.5 -132t124.5 -46t124 46.5t40 131.5v466h61v-471zM433 836l-198 -78l-16 34l187 96z" />
    <glyph glyph-name="uni0244" unicode="&#x244;" horiz-adv-x="669" 
d="M625 513h-65v-299q0 -102 -58 -163.5t-167 -61.5q-110 0 -167.5 61t-57.5 164v299h-66v45h66v127h60v-127h329v127h61v-127h65v-45zM499 513h-329v-294q0 -86 40.5 -132t124.5 -46t124 46.5t40 131.5v294z" />
    <glyph glyph-name="Ubreve" unicode="&#x16c;" horiz-adv-x="652" 
d="M551 214q0 -102 -58 -163.5t-167 -61.5q-110 0 -167.5 61t-57.5 164v471h60v-466q0 -86 40.5 -132t124.5 -46t124 46.5t40 131.5v466h61v-471zM238 793.5q-36 28.5 -43 71.5l40 9q10 -29 33 -45.5t57 -16.5t57.5 16.5t33.5 45.5l40 -9q-7 -43 -43.5 -71.5t-87.5 -28.5
t-87 28.5z" />
    <glyph glyph-name="uni01D3" unicode="&#x1d3;" horiz-adv-x="652" 
d="M551 214q0 -102 -58 -163.5t-167 -61.5q-110 0 -167.5 61t-57.5 164v471h60v-466q0 -86 40.5 -132t124.5 -46t124 46.5t40 131.5v466h61v-471zM473 857l-129 -101h-36l-130 101l26 31l122 -80l121 80z" />
    <glyph glyph-name="Ucircumflex" unicode="&#xdb;" horiz-adv-x="652" 
d="M551 214q0 -102 -58 -163.5t-167 -61.5q-110 0 -167.5 61t-57.5 164v471h60v-466q0 -86 40.5 -132t124.5 -46t124 46.5t40 131.5v466h61v-471zM326 842l-122 -80l-26 30l130 102h36l129 -102l-26 -30z" />
    <glyph glyph-name="uni0214" unicode="&#x214;" horiz-adv-x="652" 
d="M551 214q0 -102 -58 -163.5t-167 -61.5q-110 0 -167.5 61t-57.5 164v471h60v-466q0 -86 40.5 -132t124.5 -46t124 46.5t40 131.5v466h61v-471zM296 822l-38 -18l-93 142l52 27zM417 826l-38 -17l-84 136l52 28z" />
    <glyph glyph-name="Udieresis" unicode="&#xdc;" horiz-adv-x="652" 
d="M551 214q0 -102 -58 -163.5t-167 -61.5q-110 0 -167.5 61t-57.5 164v471h60v-466q0 -86 40.5 -132t124.5 -46t124 46.5t40 131.5v466h61v-471zM259.5 856.5q11.5 -11.5 11.5 -28.5t-11.5 -28t-28.5 -11t-28.5 11t-11.5 28t11.5 28.5t28.5 11.5t28.5 -11.5zM448.5 856.5
q11.5 -11.5 11.5 -28.5t-11.5 -28t-28.5 -11t-28.5 11t-11.5 28t11.5 28.5t28.5 11.5t28.5 -11.5z" />
    <glyph glyph-name="uni01D7" unicode="&#x1d7;" horiz-adv-x="652" 
d="M443 935l-121 -120l-26 24l108 132zM259.5 811.5q11.5 -11.5 11.5 -28.5t-11.5 -28t-28.5 -11t-28.5 11t-11.5 28t11.5 28.5t28.5 11.5t28.5 -11.5zM448.5 811.5q11.5 -11.5 11.5 -28.5t-11.5 -28t-28.5 -11t-28.5 11t-11.5 28t11.5 28.5t28.5 11.5t28.5 -11.5zM551 214
q0 -102 -58 -163.5t-167 -61.5q-110 0 -167.5 61t-57.5 164v471h60v-466q0 -86 40.5 -132t124.5 -46t124 46.5t40 131.5v466h61v-471z" />
    <glyph glyph-name="uni01D9" unicode="&#x1d9;" horiz-adv-x="652" 
d="M470 931l-129 -101h-36l-130 101l26 31l122 -80l121 80zM259.5 811.5q11.5 -11.5 11.5 -28.5t-11.5 -28t-28.5 -11t-28.5 11t-11.5 28t11.5 28.5t28.5 11.5t28.5 -11.5zM448.5 811.5q11.5 -11.5 11.5 -28.5t-11.5 -28t-28.5 -11t-28.5 11t-11.5 28t11.5 28.5t28.5 11.5
t28.5 -11.5zM551 214q0 -102 -58 -163.5t-167 -61.5q-110 0 -167.5 61t-57.5 164v471h60v-466q0 -86 40.5 -132t124.5 -46t124 46.5t40 131.5v466h61v-471z" />
    <glyph glyph-name="uni01DB" unicode="&#x1db;" horiz-adv-x="652" 
d="M360 839l-26 -24l-120 120l38 36zM259.5 811.5q11.5 -11.5 11.5 -28.5t-11.5 -28t-28.5 -11t-28.5 11t-11.5 28t11.5 28.5t28.5 11.5t28.5 -11.5zM448.5 811.5q11.5 -11.5 11.5 -28.5t-11.5 -28t-28.5 -11t-28.5 11t-11.5 28t11.5 28.5t28.5 11.5t28.5 -11.5zM551 214
q0 -102 -58 -163.5t-167 -61.5q-110 0 -167.5 61t-57.5 164v471h60v-466q0 -86 40.5 -132t124.5 -46t124 46.5t40 131.5v466h61v-471z" />
    <glyph glyph-name="uni01D5" unicode="&#x1d5;" horiz-adv-x="652" 
d="M207 878v47h241v-47h-241zM259.5 811.5q11.5 -11.5 11.5 -28.5t-11.5 -28t-28.5 -11t-28.5 11t-11.5 28t11.5 28.5t28.5 11.5t28.5 -11.5zM448.5 811.5q11.5 -11.5 11.5 -28.5t-11.5 -28t-28.5 -11t-28.5 11t-11.5 28t11.5 28.5t28.5 11.5t28.5 -11.5zM551 214
q0 -102 -58 -163.5t-167 -61.5q-110 0 -167.5 61t-57.5 164v471h60v-466q0 -86 40.5 -132t124.5 -46t124 46.5t40 131.5v466h61v-471z" />
    <glyph glyph-name="uni1EE4" unicode="&#x1ee4;" horiz-adv-x="652" 
d="M551 214q0 -102 -58 -163.5t-167 -61.5q-110 0 -167.5 61t-57.5 164v471h60v-466q0 -86 40.5 -132t124.5 -46t124 46.5t40 131.5v466h61v-471zM294 -158q-12 12 -12 30t12 30t32 12q19 0 31 -12t12 -30t-12 -30t-31 -12q-20 0 -32 12z" />
    <glyph glyph-name="Ugrave" unicode="&#xd9;" horiz-adv-x="652" 
d="M551 214q0 -102 -58 -163.5t-167 -61.5q-110 0 -167.5 61t-57.5 164v471h60v-466q0 -86 40.5 -132t124.5 -46t124 46.5t40 131.5v466h61v-471zM428 792l-16 -34l-198 78l26 52z" />
    <glyph glyph-name="uni1EE6" unicode="&#x1ee6;" horiz-adv-x="652" 
d="M551 214q0 -102 -58 -163.5t-167 -61.5q-110 0 -167.5 61t-57.5 164v471h60v-466q0 -86 40.5 -132t124.5 -46t124 46.5t40 131.5v466h61v-471zM299 847q35 2 52.5 12.5t17.5 34.5q0 19 -12.5 29.5t-34.5 10.5q-30 0 -58 -14l-16 36q36 21 81 21q43 0 68 -21.5t25 -57.5
q0 -67 -75 -78v-46h-48v73z" />
    <glyph glyph-name="Uhorn" unicode="&#x1af;" horiz-adv-x="652" 
d="M551 214q0 -102 -58 -163.5t-167 -61.5q-110 0 -167.5 61t-57.5 164v471h60v-466q0 -86 40.5 -132t124.5 -46t124 46.5t40 131.5v466h61v-471zM541 628q33 4 47.5 18t14.5 40q0 37 -14 72l46 12q18 -34 18 -82q0 -43 -27 -68t-75 -25z" />
    <glyph glyph-name="uni1EE8" unicode="&#x1ee8;" horiz-adv-x="652" 
d="M551 214q0 -102 -58 -163.5t-167 -61.5q-110 0 -167.5 61t-57.5 164v471h60v-466q0 -86 40.5 -132t124.5 -46t124 46.5t40 131.5v466h61v-471zM541 628q33 4 47.5 18t14.5 40q0 37 -14 72l46 12q18 -34 18 -82q0 -43 -27 -68t-75 -25zM433 836l-198 -78l-16 34l187 96z
" />
    <glyph glyph-name="uni1EF0" unicode="&#x1ef0;" horiz-adv-x="652" 
d="M551 214q0 -102 -58 -163.5t-167 -61.5q-110 0 -167.5 61t-57.5 164v471h60v-466q0 -86 40.5 -132t124.5 -46t124 46.5t40 131.5v466h61v-471zM541 628q33 4 47.5 18t14.5 40q0 37 -14 72l46 12q18 -34 18 -82q0 -43 -27 -68t-75 -25zM294 -158q-12 12 -12 30t12 30
t32 12q19 0 31 -12t12 -30t-12 -30t-31 -12q-20 0 -32 12z" />
    <glyph glyph-name="uni1EEA" unicode="&#x1eea;" horiz-adv-x="652" 
d="M551 214q0 -102 -58 -163.5t-167 -61.5q-110 0 -167.5 61t-57.5 164v471h60v-466q0 -86 40.5 -132t124.5 -46t124 46.5t40 131.5v466h61v-471zM541 628q33 4 47.5 18t14.5 40q0 37 -14 72l46 12q18 -34 18 -82q0 -43 -27 -68t-75 -25zM428 792l-16 -34l-198 78l26 52z
" />
    <glyph glyph-name="uni1EEC" unicode="&#x1eec;" horiz-adv-x="652" 
d="M551 214q0 -102 -58 -163.5t-167 -61.5q-110 0 -167.5 61t-57.5 164v471h60v-466q0 -86 40.5 -132t124.5 -46t124 46.5t40 131.5v466h61v-471zM541 628q33 4 47.5 18t14.5 40q0 37 -14 72l46 12q18 -34 18 -82q0 -43 -27 -68t-75 -25zM299 847q35 2 52.5 12.5t17.5 34.5
q0 19 -12.5 29.5t-34.5 10.5q-30 0 -58 -14l-16 36q36 21 81 21q43 0 68 -21.5t25 -57.5q0 -67 -75 -78v-46h-48v73z" />
    <glyph glyph-name="uni1EEE" unicode="&#x1eee;" horiz-adv-x="652" 
d="M551 214q0 -102 -58 -163.5t-167 -61.5q-110 0 -167.5 61t-57.5 164v471h60v-466q0 -86 40.5 -132t124.5 -46t124 46.5t40 131.5v466h61v-471zM541 628q33 4 47.5 18t14.5 40q0 37 -14 72l46 12q18 -34 18 -82q0 -43 -27 -68t-75 -25zM352 798.5q-15 6.5 -37 19.5
q-16 10 -26.5 15t-20.5 5q-17 0 -29.5 -9.5t-26.5 -30.5l-36 18q37 68 92 68q17 0 31.5 -6t32.5 -18q18 -11 29 -16t24 -5q16 0 28.5 10t27.5 33l36 -18q-35 -72 -92 -72q-18 0 -33 6.5z" />
    <glyph glyph-name="Uhungarumlaut" unicode="&#x170;" horiz-adv-x="652" 
d="M551 214q0 -102 -58 -163.5t-167 -61.5q-110 0 -167.5 61t-57.5 164v471h60v-466q0 -86 40.5 -132t124.5 -46t124 46.5t40 131.5v466h61v-471zM357 909l-85 -136l-38 17l71 147zM486 910l-93 -142l-38 18l79 151z" />
    <glyph glyph-name="uni0216" unicode="&#x216;" horiz-adv-x="652" 
d="M551 214q0 -102 -58 -163.5t-167 -61.5q-110 0 -167.5 61t-57.5 164v471h60v-466q0 -86 40.5 -132t124.5 -46t124 46.5t40 131.5v466h61v-471zM413 874q36 -30 43 -80l-40 -9q-20 72 -91 72q-70 0 -90 -72l-40 9q7 50 42.5 80t87.5 30t88 -30z" />
    <glyph glyph-name="Umacron" unicode="&#x16a;" horiz-adv-x="652" 
d="M551 214q0 -102 -58 -163.5t-167 -61.5q-110 0 -167.5 61t-57.5 164v471h60v-466q0 -86 40.5 -132t124.5 -46t124 46.5t40 131.5v466h61v-471zM206 802v47h241v-47h-241z" />
    <glyph glyph-name="Uogonek" unicode="&#x172;" horiz-adv-x="652" 
d="M551 685v-471q0 -81 -37 -137t-108 -77q-66 -30 -93.5 -56.5t-27.5 -61.5q0 -24 16 -38t48 -14q25 0 57 7l-6 -48q-35 -7 -58 -7q-53 0 -82 25.5t-29 66.5q0 73 94 115q-110 1 -167 62t-57 163v471h60v-466q0 -86 40.5 -132t124.5 -46t124 46.5t40 131.5v466h61z" />
    <glyph glyph-name="uni01B1" unicode="&#x1b1;" horiz-adv-x="691" 
d="M198 29q-63 40 -97.5 114.5t-34.5 175.5q0 117 37.5 190.5t99.5 124.5h-115v51h184v-50q-68 -48 -105.5 -123t-37.5 -193q0 -135 58 -207t158 -72t158.5 72.5t58.5 206.5q0 117 -38 192t-105 124v50h184v-51h-114q63 -47 99.5 -120.5t36.5 -194.5q0 -100 -35 -174.5
t-98.5 -115t-146.5 -40.5q-84 0 -147 40z" />
    <glyph glyph-name="Uring" unicode="&#x16e;" horiz-adv-x="652" 
d="M551 214q0 -102 -58 -163.5t-167 -61.5q-110 0 -167.5 61t-57.5 164v471h60v-466q0 -86 40.5 -132t124.5 -46t124 46.5t40 131.5v466h61v-471zM396.5 920.5q27.5 -26.5 27.5 -67.5t-27.5 -67.5t-70.5 -26.5q-44 0 -71.5 26.5t-27.5 67.5t27.5 67.5t71.5 26.5
q43 0 70.5 -26.5zM284.5 895.5q-14.5 -15.5 -14.5 -42.5q0 -28 14.5 -43t41.5 -15q26 0 40.5 15t14.5 43q0 27 -14.5 42.5t-40.5 15.5q-27 0 -41.5 -15.5z" />
    <glyph glyph-name="Utilde" unicode="&#x168;" horiz-adv-x="652" 
d="M551 214q0 -102 -58 -163.5t-167 -61.5q-110 0 -167.5 61t-57.5 164v471h60v-466q0 -86 40.5 -132t124.5 -46t124 46.5t40 131.5v466h61v-471zM352 798.5q-15 6.5 -37 19.5q-16 10 -26.5 15t-20.5 5q-17 0 -29.5 -9.5t-26.5 -30.5l-36 18q37 68 92 68q17 0 31.5 -6
t32.5 -18q18 -11 29 -16t24 -5q16 0 28.5 10t27.5 33l36 -18q-35 -72 -92 -72q-18 0 -33 6.5z" />
    <glyph glyph-name="uni1E78" unicode="&#x1e78;" horiz-adv-x="652" 
d="M433 957l-198 -78l-16 34l187 96zM352 763.5q-15 6.5 -37 19.5q-16 10 -26.5 15t-20.5 5q-17 0 -29.5 -9.5t-26.5 -30.5l-36 18q37 68 92 68q17 0 31.5 -6t32.5 -18q18 -11 29 -16t24 -5q16 0 28.5 10t27.5 33l36 -18q-35 -72 -92 -72q-18 0 -33 6.5zM551 214
q0 -102 -58 -163.5t-167 -61.5q-110 0 -167.5 61t-57.5 164v471h60v-466q0 -86 40.5 -132t124.5 -46t124 46.5t40 131.5v466h61v-471z" />
    <glyph glyph-name="V" unicode="V" horiz-adv-x="546" 
d="M307 0h-67l-224 685h65l193 -623l194 623h62z" />
    <glyph glyph-name="uni01B2" unicode="&#x1b2;" horiz-adv-x="639" 
d="M525.5 669q25.5 -27 25.5 -81v-294q0 -95 -31.5 -164t-87.5 -105t-129 -36q-93 0 -147.5 56t-54.5 148v492h60v-488q0 -74 37.5 -115t104.5 -41q86 0 136.5 66.5t50.5 191.5v288q0 31 -10.5 45t-34.5 14q-22 0 -41 -8l-17 41q29 17 65 17q48 0 73.5 -27z" />
    <glyph glyph-name="uni0245" unicode="&#x245;" horiz-adv-x="565" 
d="M548 0h-63l-203 636l-205 -636h-61l229 685h75z" />
    <glyph glyph-name="W" unicode="W" horiz-adv-x="810" 
d="M629 0h-75l-150 618l-150 -618h-73l-151 685h61l130 -630l150 630h67l153 -630l131 630h57z" />
    <glyph glyph-name="Wacute" unicode="&#x1e82;" horiz-adv-x="810" 
d="M629 0h-75l-150 618l-150 -618h-73l-151 685h61l130 -630l150 630h67l153 -630l131 630h57zM511 836l-198 -78l-16 34l187 96z" />
    <glyph glyph-name="Wcircumflex" unicode="&#x174;" horiz-adv-x="810" 
d="M629 0h-75l-150 618l-150 -618h-73l-151 685h61l130 -630l150 630h67l153 -630l131 630h57zM404 842l-122 -80l-26 30l130 102h36l129 -102l-26 -30z" />
    <glyph glyph-name="Wdieresis" unicode="&#x1e84;" horiz-adv-x="810" 
d="M629 0h-75l-150 618l-150 -618h-73l-151 685h61l130 -630l150 630h67l153 -630l131 630h57zM338.5 856.5q11.5 -11.5 11.5 -28.5t-11.5 -28t-28.5 -11t-28.5 11t-11.5 28t11.5 28.5t28.5 11.5t28.5 -11.5zM527.5 856.5q11.5 -11.5 11.5 -28.5t-11.5 -28t-28.5 -11
t-28.5 11t-11.5 28t11.5 28.5t28.5 11.5t28.5 -11.5z" />
    <glyph glyph-name="Wgrave" unicode="&#x1e80;" horiz-adv-x="810" 
d="M629 0h-75l-150 618l-150 -618h-73l-151 685h61l130 -630l150 630h67l153 -630l131 630h57zM507 792l-16 -34l-198 78l26 52z" />
    <glyph glyph-name="uni2C72" unicode="&#x2c72;" horiz-adv-x="848" 
d="M629 0h-75l-150 618l-150 -618h-73l-151 685h61l130 -630l150 630h67l153 -630l108 537q10 54 40 79t74 25q28 0 49.5 -10t43.5 -28l-25 -35q-17 13 -31 19.5t-33 6.5q-28 0 -43.5 -14.5t-23.5 -52.5z" />
    <glyph glyph-name="uni01F7" unicode="&#x1f7;" horiz-adv-x="570" 
d="M473.5 647.5q51.5 -48.5 51.5 -133.5q0 -102 -66.5 -161.5t-189.5 -104.5l-98 -36v-212h-60v685h60v-57q71 68 170 68q81 0 132.5 -48.5zM411 382.5q51 49.5 51 131.5q0 63 -34.5 97t-94.5 34q-93 0 -162 -66v-316l98 36q91 34 142 83.5z" />
    <glyph glyph-name="X" unicode="X" horiz-adv-x="512" 
d="M504 0h-68l-182 330l-179 -330h-65l209 368l-188 317h68l156 -278l156 278h65l-186 -314z" />
    <glyph glyph-name="Y" unicode="Y" horiz-adv-x="523" 
d="M292 268v-268h-60v267l-219 418h67l184 -365l181 365h64z" />
    <glyph glyph-name="Yacute" unicode="&#xdd;" horiz-adv-x="523" 
d="M292 268v-268h-60v267l-219 418h67l184 -365l181 365h64zM368 836l-198 -78l-16 34l187 96z" />
    <glyph glyph-name="Ycircumflex" unicode="&#x176;" horiz-adv-x="523" 
d="M292 268v-268h-60v267l-219 418h67l184 -365l181 365h64zM261 842l-122 -80l-26 30l130 102h36l129 -102l-26 -30z" />
    <glyph glyph-name="Ydieresis" unicode="&#x178;" horiz-adv-x="523" 
d="M292 268v-268h-60v267l-219 418h67l184 -365l181 365h64zM194.5 856.5q11.5 -11.5 11.5 -28.5t-11.5 -28t-28.5 -11t-28.5 11t-11.5 28t11.5 28.5t28.5 11.5t28.5 -11.5zM383.5 856.5q11.5 -11.5 11.5 -28.5t-11.5 -28t-28.5 -11t-28.5 11t-11.5 28t11.5 28.5t28.5 11.5
t28.5 -11.5z" />
    <glyph glyph-name="uni1EF4" unicode="&#x1ef4;" horiz-adv-x="523" 
d="M292 268v-268h-60v267l-219 418h67l184 -365l181 365h64zM231 -158q-12 12 -12 30t12 30t32 12q19 0 31 -12t12 -30t-12 -30t-31 -12q-20 0 -32 12z" />
    <glyph glyph-name="Ygrave" unicode="&#x1ef2;" horiz-adv-x="523" 
d="M292 268v-268h-60v267l-219 418h67l184 -365l181 365h64zM363 792l-16 -34l-198 78l26 52z" />
    <glyph glyph-name="uni01B3" unicode="&#x1b3;" horiz-adv-x="548" 
d="M232 267l-219 418h67l184 -365l129 282q23 50 50.5 72t69.5 22q28 0 49.5 -10t43.5 -28l-25 -35q-16 13 -31 19.5t-34 6.5q-24 0 -39.5 -13.5t-34.5 -52.5l-150 -315v-268h-60v267z" />
    <glyph glyph-name="uni1EF6" unicode="&#x1ef6;" horiz-adv-x="523" 
d="M292 268v-268h-60v267l-219 418h67l184 -365l181 365h64zM234 847q35 2 52.5 12.5t17.5 34.5q0 19 -12.5 29.5t-34.5 10.5q-30 0 -58 -14l-16 36q36 21 81 21q43 0 68 -21.5t25 -57.5q0 -67 -75 -78v-46h-48v73z" />
    <glyph glyph-name="uni0232" unicode="&#x232;" horiz-adv-x="523" 
d="M292 268v-268h-60v267l-219 418h67l184 -365l181 365h64zM141 802v47h241v-47h-241z" />
    <glyph glyph-name="uni021C" unicode="&#x21c;" horiz-adv-x="501" 
d="M374 647.5q52 -48.5 52 -129.5q0 -66 -35.5 -105.5t-97.5 -52.5q69 -8 111.5 -48t42.5 -112q0 -106 -89 -177.5t-291 -112.5l-6 52q121 25 192 59.5t101 78t30 100.5q0 64 -43.5 98t-127.5 33h-62l8 51h52q70 0 111 34.5t41 99.5q0 60 -35.5 94.5t-102.5 34.5
q-48 0 -89.5 -17.5t-82.5 -52.5l-32 37q47 42 97.5 63t110.5 21q93 0 145 -48.5z" />
    <glyph glyph-name="uni01A6" unicode="&#x1a6;" horiz-adv-x="590" 
d="M308 181h-137v-181h-60v685h60v-126h106q244 0 244 -186q0 -74 -39 -118t-114 -63l188 -318h-72zM285 230q172 0 172 143q0 70 -42.5 103t-139.5 33h-104v-279h114z" />
    <glyph glyph-name="uni024E" unicode="&#x24e;" horiz-adv-x="523" 
d="M462 595h47v-45h-70l-147 -282v-268h-60v267l-148 283h-69v45h46l-48 90h67l45 -90h275l45 90h64zM378 550h-230l116 -230z" />
    <glyph glyph-name="uni1EF8" unicode="&#x1ef8;" horiz-adv-x="523" 
d="M292 268v-268h-60v267l-219 418h67l184 -365l181 365h64zM287 798.5q-15 6.5 -37 19.5q-16 10 -26.5 15t-20.5 5q-17 0 -29.5 -9.5t-26.5 -30.5l-36 18q37 68 92 68q17 0 31.5 -6t32.5 -18q18 -11 29 -16t24 -5q16 0 28.5 10t27.5 33l36 -18q-35 -72 -92 -72
q-18 0 -33 6.5z" />
    <glyph glyph-name="Z" unicode="Z" horiz-adv-x="516" 
d="M468 636l-364 -583h358l-8 -53h-419v50l367 583h-329v52h395v-49z" />
    <glyph glyph-name="Zacute" unicode="&#x179;" horiz-adv-x="516" 
d="M468 636l-364 -583h358l-8 -53h-419v50l367 583h-329v52h395v-49zM370 836l-198 -78l-16 34l187 96z" />
    <glyph glyph-name="Zacute.loclPLK" horiz-adv-x="516" 
d="M468 636l-364 -583h358l-8 -53h-419v50l367 583h-329v52h395v-49zM373 877l-120 -145l-30 19l102 157z" />
    <glyph glyph-name="Zcaron" unicode="&#x17d;" horiz-adv-x="516" 
d="M468 636l-364 -583h358l-8 -53h-419v50l367 583h-329v52h395v-49zM410 857l-129 -101h-36l-130 101l26 31l122 -80l121 80z" />
    <glyph glyph-name="Zdotaccent" unicode="&#x17b;" horiz-adv-x="516" 
d="M468 636l-364 -583h358l-8 -53h-419v50l367 583h-329v52h395v-49zM295 867q12 -12 12 -30t-12 -30t-32 -12q-19 0 -31 12t-12 30t12 30t31 12q20 0 32 -12z" />
    <glyph glyph-name="uni1E92" unicode="&#x1e92;" horiz-adv-x="516" 
d="M468 636l-364 -583h358l-8 -53h-419v50l367 583h-329v52h395v-49zM226 -158q-12 12 -12 30t12 30t32 12q19 0 31 -12t12 -30t-12 -30t-31 -12q-20 0 -32 12z" />
    <glyph glyph-name="uni0224" unicode="&#x224;" horiz-adv-x="516" 
d="M468 636l-364 -583h354v-124q0 -66 -34 -100t-91 -34q-58 0 -102 34l24 39q18 -12 35 -18t41 -6q68 0 68 84v72h-364v50l367 583h-329v52h395v-49z" />
    <glyph glyph-name="uni01B5" unicode="&#x1b5;" horiz-adv-x="516" 
d="M468 636l-167 -266h109v-50h-140l-168 -267h360l-8 -53h-419v50l171 270h-99v50h131l166 263h-331v52h395v-49z" />
    <glyph glyph-name="uniA7AD" unicode="&#xa7ad;" horiz-adv-x="516" 
d="M496 54l-8 -54h-338v268q-64 2 -98 27.5t-34 73.5q0 43 29.5 68t72.5 25q14 0 30 -2v225h60v-372q56 3 119 14l6 -42q-62 -12 -125 -15v-216h286zM150 417q-16 2 -27 2q-25 0 -39.5 -12.5t-14.5 -36.5q0 -30 20.5 -43.5t60.5 -13.5v104z" />
    <glyph glyph-name="uni0299" unicode="&#x299;" horiz-adv-x="550" 
d="M486 154q0 -78 -58 -116t-155 -38h-167v517q83 17 160 17q90 0 140.5 -37t50.5 -99q0 -88 -101 -114q130 -14 130 -130zM164 478v-176h122q53 0 82.5 23t29.5 69q0 93 -131 93q-55 0 -103 -9zM425 154q0 55 -34 79t-99 24h-128v-209h103q158 0 158 106z" />
    <glyph glyph-name="uni0262" unicode="&#x262;" horiz-adv-x="555" 
d="M387.5 521q38.5 -14 76.5 -43l-34 -37q-31 23 -62 33.5t-68 10.5q-46 0 -86 -23.5t-64.5 -73t-24.5 -123.5q0 -116 45 -171t126 -55q66 0 118 26v174h-111l-6 47h174v-248q-79 -47 -175 -47q-108 0 -170 69.5t-62 204.5q0 84 32.5 145t86.5 93t116 32q50 0 88.5 -14z" />
    <glyph glyph-name="uni029B" unicode="&#x29b;" horiz-adv-x="555" 
d="M633 709l-25 -37q-19 11 -35.5 17t-39.5 6q-69 0 -69 -83v-134l-30 -33q-32 21 -64 30.5t-70 9.5q-47 0 -87 -23.5t-64 -73t-24 -123.5q0 -116 45 -171t126 -55q66 0 118 26v174h-111l-6 47h174v-248q-79 -47 -175 -47q-108 0 -170 69.5t-62 204.5q0 84 32.5 145t86.5 93
t116 32q57 0 107 -25v99q0 66 33 100t91 34q57 0 103 -34z" />
    <glyph glyph-name="uni029C" unicode="&#x29c;" horiz-adv-x="588" 
d="M424 246h-260v-246h-58v523h58v-228h260v228h58v-523h-58v246z" />
    <glyph glyph-name="uni026A" unicode="&#x26a;" horiz-adv-x="320" 
d="M188 476v-428h104v-48h-264v48h102v428h-102v47h264v-47h-104z" />
    <glyph glyph-name="uni029F" unicode="&#x29f;" horiz-adv-x="416" 
d="M164 51h240l-8 -51h-290v523h58v-472z" />
    <glyph glyph-name="uni0274" unicode="&#x274;" horiz-adv-x="590" 
d="M484 0h-75l-255 466q6 -96 6 -208v-258h-54v523h74l256 -467q-7 79 -7 165v302h55v-523z" />
    <glyph glyph-name="uni0276" unicode="&#x276;" horiz-adv-x="733" 
d="M690 0h-337q-35 -11 -68 -11q-104 0 -162.5 72.5t-58.5 199.5q0 83 27 145t77 95t118 33q40 0 72 -11h327l-7 -47h-253q34 -27 56 -74t26 -107h139v-47h-138q-3 -71 -26.5 -121t-62.5 -80h271v-47zM167.5 95q41.5 -57 118.5 -57q74 0 117.5 58.5t43.5 168.5
q0 108 -44 164t-117 56q-76 0 -118 -57t-42 -167q0 -109 41.5 -166z" />
    <glyph glyph-name="uni0280" unicode="&#x280;" horiz-adv-x="514" 
d="M267 216h-103v-216h-58v523h131q104 0 156.5 -39t52.5 -114q0 -109 -124 -144l151 -226h-67zM246 263q68 0 104 26.5t36 80.5t-36 80t-115 26h-71v-213h82z" />
    <glyph glyph-name="uni0281" unicode="&#x281;" horiz-adv-x="514" 
d="M413.5 249q32.5 -36 32.5 -92q0 -157 -209 -157h-131v523h58v-216h106l140 216h63l-149 -224q57 -14 89.5 -50zM350 73.5q36 26.5 36 83.5q0 103 -140 103h-82v-213h71q79 0 115 26.5z" />
    <glyph glyph-name="uni028F" unicode="&#x28f;" horiz-adv-x="427" 
d="M243 206v-206h-58v205l-180 318h64l147 -272l143 272h62z" />
    <glyph glyph-name="a" unicode="a" horiz-adv-x="536" 
d="M441.5 57q10.5 -18 33.5 -27l-13 -41q-36 8 -55.5 28t-25.5 59q-57 -87 -163 -87q-75 0 -118.5 42.5t-43.5 113.5q0 81 57.5 125t159.5 44h100v51q0 63 -28 91.5t-93 28.5q-60 0 -142 -30l-15 44q88 35 165 35q171 0 171 -166v-252q0 -41 10.5 -59zM373 130v142h-91
q-80 0 -122 -31t-42 -93q0 -54 29 -83t81 -29q96 0 145 94z" />
    <glyph glyph-name="aacute" unicode="&#xe1;" horiz-adv-x="536" 
d="M441.5 57q10.5 -18 33.5 -27l-13 -41q-36 8 -55.5 28t-25.5 59q-57 -87 -163 -87q-75 0 -118.5 42.5t-43.5 113.5q0 81 57.5 125t159.5 44h100v51q0 63 -28 91.5t-93 28.5q-60 0 -142 -30l-15 44q88 35 165 35q171 0 171 -166v-252q0 -41 10.5 -59zM373 130v142h-91
q-80 0 -122 -31t-42 -93q0 -54 29 -83t81 -29q96 0 145 94zM359 730l-195 -85l-19 34l188 103z" />
    <glyph glyph-name="abreve" unicode="&#x103;" horiz-adv-x="536" 
d="M441.5 57q10.5 -18 33.5 -27l-13 -41q-36 8 -55.5 28t-25.5 59q-57 -87 -163 -87q-75 0 -118.5 42.5t-43.5 113.5q0 81 57.5 125t159.5 44h100v51q0 63 -28 91.5t-93 28.5q-60 0 -142 -30l-15 44q88 35 165 35q171 0 171 -166v-252q0 -41 10.5 -59zM373 130v142h-91
q-80 0 -122 -31t-42 -93q0 -54 29 -83t81 -29q96 0 145 94zM170.5 683q-35.5 30 -42.5 80l40 9q20 -72 90 -72q71 0 91 72l40 -9q-7 -50 -43 -80t-88 -30t-87.5 30z" />
    <glyph glyph-name="uni1EAF" unicode="&#x1eaf;" horiz-adv-x="536" 
d="M258 718l-26 24l108 132l39 -36zM171 625.5q-36 28.5 -43 71.5l40 9q10 -29 33 -45.5t57 -16.5t57.5 16.5t33.5 45.5l40 -9q-7 -43 -43.5 -71.5t-87.5 -28.5t-87 28.5zM441.5 57q10.5 -18 33.5 -27l-13 -41q-36 8 -55.5 28t-25.5 59q-57 -87 -163 -87q-75 0 -118.5 42.5
t-43.5 113.5q0 81 57.5 125t159.5 44h100v51q0 63 -28 91.5t-93 28.5q-60 0 -142 -30l-15 44q88 35 165 35q171 0 171 -166v-252q0 -41 10.5 -59zM373 130v142h-91q-80 0 -122 -31t-42 -93q0 -54 29 -83t81 -29q96 0 145 94z" />
    <glyph glyph-name="uni1EB7" unicode="&#x1eb7;" horiz-adv-x="536" 
d="M441.5 57q10.5 -18 33.5 -27l-13 -41q-36 8 -55.5 28t-25.5 59q-57 -87 -163 -87q-75 0 -118.5 42.5t-43.5 113.5q0 81 57.5 125t159.5 44h100v51q0 63 -28 91.5t-93 28.5q-60 0 -142 -30l-15 44q88 35 165 35q171 0 171 -166v-252q0 -41 10.5 -59zM373 130v142h-91
q-80 0 -122 -31t-42 -93q0 -54 29 -83t81 -29q96 0 145 94zM170.5 683q-35.5 30 -42.5 80l40 9q20 -72 90 -72q71 0 91 72l40 -9q-7 -50 -43 -80t-88 -30t-87.5 30zM227 -158q-12 12 -12 30t12 30t32 12q19 0 31 -12t12 -30t-12 -30t-31 -12q-20 0 -32 12z" />
    <glyph glyph-name="uni1EB1" unicode="&#x1eb1;" horiz-adv-x="536" 
d="M267 718l-120 120l38 36l108 -132zM171 625.5q-36 28.5 -43 71.5l40 9q10 -29 33 -45.5t57 -16.5t57.5 16.5t33.5 45.5l40 -9q-7 -43 -43.5 -71.5t-87.5 -28.5t-87 28.5zM441.5 57q10.5 -18 33.5 -27l-13 -41q-36 8 -55.5 28t-25.5 59q-57 -87 -163 -87
q-75 0 -118.5 42.5t-43.5 113.5q0 81 57.5 125t159.5 44h100v51q0 63 -28 91.5t-93 28.5q-60 0 -142 -30l-15 44q88 35 165 35q171 0 171 -166v-252q0 -41 10.5 -59zM373 130v142h-91q-80 0 -122 -31t-42 -93q0 -54 29 -83t81 -29q96 0 145 94z" />
    <glyph glyph-name="uni1EB3" unicode="&#x1eb3;" horiz-adv-x="536" 
d="M198 854l-16 36q37 22 81 22q43 0 68 -22t25 -58q0 -34 -19.5 -53t-55.5 -24v-57h-48v84q35 2 52.5 12t17.5 34q0 20 -12.5 30.5t-34.5 10.5q-31 0 -58 -15zM171 625.5q-36 28.5 -43 71.5l40 9q10 -29 33 -45.5t57 -16.5t57.5 16.5t33.5 45.5l40 -9q-7 -43 -43.5 -71.5
t-87.5 -28.5t-87 28.5zM441.5 57q10.5 -18 33.5 -27l-13 -41q-36 8 -55.5 28t-25.5 59q-57 -87 -163 -87q-75 0 -118.5 42.5t-43.5 113.5q0 81 57.5 125t159.5 44h100v51q0 63 -28 91.5t-93 28.5q-60 0 -142 -30l-15 44q88 35 165 35q171 0 171 -166v-252q0 -41 10.5 -59z
M373 130v142h-91q-80 0 -122 -31t-42 -93q0 -54 29 -83t81 -29q96 0 145 94z" />
    <glyph glyph-name="uni1EB5" unicode="&#x1eb5;" horiz-adv-x="536" 
d="M172.5 784.5q-12.5 -9.5 -26.5 -30.5l-36 18q37 68 92 68q17 0 31.5 -6t32.5 -18q18 -11 29 -16t24 -5q16 0 28.5 10t27.5 33l36 -18q-35 -72 -92 -72q-18 0 -33 6.5t-37 19.5q-16 10 -26.5 15t-20.5 5q-17 0 -29.5 -9.5zM315.5 660.5q23.5 16.5 33.5 45.5l40 -9
q-7 -43 -43.5 -71.5t-87.5 -28.5t-87 28.5t-43 71.5l40 9q10 -29 33 -45.5t57 -16.5t57.5 16.5zM441.5 57q10.5 -18 33.5 -27l-13 -41q-36 8 -55.5 28t-25.5 59q-57 -87 -163 -87q-75 0 -118.5 42.5t-43.5 113.5q0 81 57.5 125t159.5 44h100v51q0 63 -28 91.5t-93 28.5
q-60 0 -142 -30l-15 44q88 35 165 35q171 0 171 -166v-252q0 -41 10.5 -59zM373 130v142h-91q-80 0 -122 -31t-42 -93q0 -54 29 -83t81 -29q96 0 145 94z" />
    <glyph glyph-name="uni01CE" unicode="&#x1ce;" horiz-adv-x="536" 
d="M441.5 57q10.5 -18 33.5 -27l-13 -41q-36 8 -55.5 28t-25.5 59q-57 -87 -163 -87q-75 0 -118.5 42.5t-43.5 113.5q0 81 57.5 125t159.5 44h100v51q0 63 -28 91.5t-93 28.5q-60 0 -142 -30l-15 44q88 35 165 35q171 0 171 -166v-252q0 -41 10.5 -59zM373 130v142h-91
q-80 0 -122 -31t-42 -93q0 -54 29 -83t81 -29q96 0 145 94zM405 739l-129 -106h-36l-130 106l26 30l122 -84l121 84z" />
    <glyph glyph-name="acircumflex" unicode="&#xe2;" horiz-adv-x="536" 
d="M441.5 57q10.5 -18 33.5 -27l-13 -41q-36 8 -55.5 28t-25.5 59q-57 -87 -163 -87q-75 0 -118.5 42.5t-43.5 113.5q0 81 57.5 125t159.5 44h100v51q0 63 -28 91.5t-93 28.5q-60 0 -142 -30l-15 44q88 35 165 35q171 0 171 -166v-252q0 -41 10.5 -59zM373 130v142h-91
q-80 0 -122 -31t-42 -93q0 -54 29 -83t81 -29q96 0 145 94zM110 674l129 105h36l130 -105l-26 -31l-122 85l-121 -85z" />
    <glyph glyph-name="uni1EA5" unicode="&#x1ea5;" horiz-adv-x="536" 
d="M371 693l-26 24l108 132l39 -36zM134 587l-26 30l130 102h36l129 -102l-26 -30l-121 80zM441.5 57q10.5 -18 33.5 -27l-13 -41q-36 8 -55.5 28t-25.5 59q-57 -87 -163 -87q-75 0 -118.5 42.5t-43.5 113.5q0 81 57.5 125t159.5 44h100v51q0 63 -28 91.5t-93 28.5
q-60 0 -142 -30l-15 44q88 35 165 35q171 0 171 -166v-252q0 -41 10.5 -59zM373 130v142h-91q-80 0 -122 -31t-42 -93q0 -54 29 -83t81 -29q96 0 145 94z" />
    <glyph glyph-name="uni1EAD" unicode="&#x1ead;" horiz-adv-x="536" 
d="M441.5 57q10.5 -18 33.5 -27l-13 -41q-36 8 -55.5 28t-25.5 59q-57 -87 -163 -87q-75 0 -118.5 42.5t-43.5 113.5q0 81 57.5 125t159.5 44h100v51q0 63 -28 91.5t-93 28.5q-60 0 -142 -30l-15 44q88 35 165 35q171 0 171 -166v-252q0 -41 10.5 -59zM373 130v142h-91
q-80 0 -122 -31t-42 -93q0 -54 29 -83t81 -29q96 0 145 94zM110 674l129 105h36l130 -105l-26 -31l-122 85l-121 -85zM227 -158q-12 12 -12 30t12 30t32 12q19 0 31 -12t12 -30t-12 -30t-31 -12q-20 0 -32 12z" />
    <glyph glyph-name="uni1EA7" unicode="&#x1ea7;" horiz-adv-x="536" 
d="M145 693l-120 120l38 36l108 -132zM108 617l130 102h36l129 -102l-26 -30l-121 80l-122 -80zM441.5 57q10.5 -18 33.5 -27l-13 -41q-36 8 -55.5 28t-25.5 59q-57 -87 -163 -87q-75 0 -118.5 42.5t-43.5 113.5q0 81 57.5 125t159.5 44h100v51q0 63 -28 91.5t-93 28.5
q-60 0 -142 -30l-15 44q88 35 165 35q171 0 171 -166v-252q0 -41 10.5 -59zM373 130v142h-91q-80 0 -122 -31t-42 -93q0 -54 29 -83t81 -29q96 0 145 94z" />
    <glyph glyph-name="uni1EA9" unicode="&#x1ea9;" horiz-adv-x="536" 
d="M323 845l-16 36q37 22 81 22q43 0 68 -22t25 -58q0 -34 -19.5 -53t-55.5 -24v-57h-48v84q35 2 52.5 12t17.5 34q0 20 -12.5 30.5t-34.5 10.5q-31 0 -58 -15zM134 587l-26 30l130 102h36l129 -102l-26 -30l-121 80zM441.5 57q10.5 -18 33.5 -27l-13 -41q-36 8 -55.5 28
t-25.5 59q-57 -87 -163 -87q-75 0 -118.5 42.5t-43.5 113.5q0 81 57.5 125t159.5 44h100v51q0 63 -28 91.5t-93 28.5q-60 0 -142 -30l-15 44q88 35 165 35q171 0 171 -166v-252q0 -41 10.5 -59zM373 130v142h-91q-80 0 -122 -31t-42 -93q0 -54 29 -83t81 -29q96 0 145 94z
" />
    <glyph glyph-name="uni1EAB" unicode="&#x1eab;" horiz-adv-x="536" 
d="M168.5 782.5q-12.5 -9.5 -26.5 -30.5l-36 18q37 68 92 68q17 0 31.5 -6t32.5 -18q18 -11 29 -16t24 -5q16 0 28.5 10t27.5 33l36 -18q-35 -72 -92 -72q-18 0 -33 6.5t-37 19.5q-16 10 -26.5 15t-20.5 5q-17 0 -29.5 -9.5zM274 709l129 -102l-26 -30l-121 80l-122 -80
l-26 30l130 102h36zM441.5 57q10.5 -18 33.5 -27l-13 -41q-36 8 -55.5 28t-25.5 59q-57 -87 -163 -87q-75 0 -118.5 42.5t-43.5 113.5q0 81 57.5 125t159.5 44h100v51q0 63 -28 91.5t-93 28.5q-60 0 -142 -30l-15 44q88 35 165 35q171 0 171 -166v-252q0 -41 10.5 -59z
M373 130v142h-91q-80 0 -122 -31t-42 -93q0 -54 29 -83t81 -29q96 0 145 94z" />
    <glyph glyph-name="uni0201" unicode="&#x201;" horiz-adv-x="536" 
d="M441.5 57q10.5 -18 33.5 -27l-13 -41q-36 8 -55.5 28t-25.5 59q-57 -87 -163 -87q-75 0 -118.5 42.5t-43.5 113.5q0 81 57.5 125t159.5 44h100v51q0 63 -28 91.5t-93 28.5q-60 0 -142 -30l-15 44q88 35 165 35q171 0 171 -166v-252q0 -41 10.5 -59zM373 130v142h-91
q-80 0 -122 -31t-42 -93q0 -54 29 -83t81 -29q96 0 145 94zM229 660l-38 -18l-93 142l52 27zM350 664l-38 -17l-84 136l52 28z" />
    <glyph glyph-name="adieresis" unicode="&#xe4;" horiz-adv-x="536" 
d="M441.5 57q10.5 -18 33.5 -27l-13 -41q-36 8 -55.5 28t-25.5 59q-57 -87 -163 -87q-75 0 -118.5 42.5t-43.5 113.5q0 81 57.5 125t159.5 44h100v51q0 63 -28 91.5t-93 28.5q-60 0 -142 -30l-15 44q88 35 165 35q171 0 171 -166v-252q0 -41 10.5 -59zM373 130v142h-91
q-80 0 -122 -31t-42 -93q0 -54 29 -83t81 -29q96 0 145 94zM191.5 730.5q11.5 -11.5 11.5 -28.5t-11.5 -28t-28.5 -11t-28.5 11t-11.5 28t11.5 28.5t28.5 11.5t28.5 -11.5zM380.5 730.5q11.5 -11.5 11.5 -28.5t-11.5 -28t-28.5 -11t-28.5 11t-11.5 28t11.5 28.5t28.5 11.5
t28.5 -11.5z" />
    <glyph glyph-name="uni01DF" unicode="&#x1df;" horiz-adv-x="536" 
d="M380 773h-241v47h241v-47zM134.5 644q-11.5 11 -11.5 28t11.5 28.5t28.5 11.5t28.5 -11.5t11.5 -28.5t-11.5 -28t-28.5 -11t-28.5 11zM323.5 700.5q11.5 11.5 28.5 11.5t28.5 -11.5t11.5 -28.5t-11.5 -28t-28.5 -11t-28.5 11t-11.5 28t11.5 28.5zM441.5 57
q10.5 -18 33.5 -27l-13 -41q-36 8 -55.5 28t-25.5 59q-57 -87 -163 -87q-75 0 -118.5 42.5t-43.5 113.5q0 81 57.5 125t159.5 44h100v51q0 63 -28 91.5t-93 28.5q-60 0 -142 -30l-15 44q88 35 165 35q171 0 171 -166v-252q0 -41 10.5 -59zM373 130v142h-91q-80 0 -122 -31
t-42 -93q0 -54 29 -83t81 -29q96 0 145 94z" />
    <glyph glyph-name="uni0227" unicode="&#x227;" horiz-adv-x="536" 
d="M441.5 57q10.5 -18 33.5 -27l-13 -41q-36 8 -55.5 28t-25.5 59q-57 -87 -163 -87q-75 0 -118.5 42.5t-43.5 113.5q0 81 57.5 125t159.5 44h100v51q0 63 -28 91.5t-93 28.5q-60 0 -142 -30l-15 44q88 35 165 35q171 0 171 -166v-252q0 -41 10.5 -59zM373 130v142h-91
q-80 0 -122 -31t-42 -93q0 -54 29 -83t81 -29q96 0 145 94zM290 741q12 -12 12 -30t-12 -30t-32 -12q-19 0 -31 12t-12 30t12 30t31 12q20 0 32 -12z" />
    <glyph glyph-name="uni1EA1" unicode="&#x1ea1;" horiz-adv-x="536" 
d="M441.5 57q10.5 -18 33.5 -27l-13 -41q-36 8 -55.5 28t-25.5 59q-57 -87 -163 -87q-75 0 -118.5 42.5t-43.5 113.5q0 81 57.5 125t159.5 44h100v51q0 63 -28 91.5t-93 28.5q-60 0 -142 -30l-15 44q88 35 165 35q171 0 171 -166v-252q0 -41 10.5 -59zM373 130v142h-91
q-80 0 -122 -31t-42 -93q0 -54 29 -83t81 -29q96 0 145 94zM227 -158q-12 12 -12 30t12 30t32 12q19 0 31 -12t12 -30t-12 -30t-31 -12q-20 0 -32 12z" />
    <glyph glyph-name="uni01E1" unicode="&#x1e1;" horiz-adv-x="536" 
d="M381 757h-241v47h241v-47zM228 691q12 12 31 12q20 0 32 -12t12 -30t-12 -30t-32 -12q-19 0 -31 12t-12 30t12 30zM441.5 57q10.5 -18 33.5 -27l-13 -41q-36 8 -55.5 28t-25.5 59q-57 -87 -163 -87q-75 0 -118.5 42.5t-43.5 113.5q0 81 57.5 125t159.5 44h100v51
q0 63 -28 91.5t-93 28.5q-60 0 -142 -30l-15 44q88 35 165 35q171 0 171 -166v-252q0 -41 10.5 -59zM373 130v142h-91q-80 0 -122 -31t-42 -93q0 -54 29 -83t81 -29q96 0 145 94z" />
    <glyph glyph-name="agrave" unicode="&#xe0;" horiz-adv-x="536" 
d="M441.5 57q10.5 -18 33.5 -27l-13 -41q-36 8 -55.5 28t-25.5 59q-57 -87 -163 -87q-75 0 -118.5 42.5t-43.5 113.5q0 81 57.5 125t159.5 44h100v51q0 63 -28 91.5t-93 28.5q-60 0 -142 -30l-15 44q88 35 165 35q171 0 171 -166v-252q0 -41 10.5 -59zM373 130v142h-91
q-80 0 -122 -31t-42 -93q0 -54 29 -83t81 -29q96 0 145 94zM369 679l-18 -34l-196 85l26 52z" />
    <glyph glyph-name="uni1EA3" unicode="&#x1ea3;" horiz-adv-x="536" 
d="M441.5 57q10.5 -18 33.5 -27l-13 -41q-36 8 -55.5 28t-25.5 59q-57 -87 -163 -87q-75 0 -118.5 42.5t-43.5 113.5q0 81 57.5 125t159.5 44h100v51q0 63 -28 91.5t-93 28.5q-60 0 -142 -30l-15 44q88 35 165 35q171 0 171 -166v-252q0 -41 10.5 -59zM373 130v142h-91
q-80 0 -122 -31t-42 -93q0 -54 29 -83t81 -29q96 0 145 94zM231 700q35 2 52.5 12t17.5 34q0 20 -12.5 30.5t-34.5 10.5q-31 0 -58 -15l-16 36q37 22 81 22q43 0 68 -22t25 -58q0 -34 -19.5 -53t-55.5 -24v-57h-48v84z" />
    <glyph glyph-name="uni0203" unicode="&#x203;" horiz-adv-x="536" 
d="M441.5 57q10.5 -18 33.5 -27l-13 -41q-36 8 -55.5 28t-25.5 59q-57 -87 -163 -87q-75 0 -118.5 42.5t-43.5 113.5q0 81 57.5 125t159.5 44h100v51q0 63 -28 91.5t-93 28.5q-60 0 -142 -30l-15 44q88 35 165 35q171 0 171 -166v-252q0 -41 10.5 -59zM373 130v142h-91
q-80 0 -122 -31t-42 -93q0 -54 29 -83t81 -29q96 0 145 94zM346 712q36 -30 43 -80l-40 -9q-20 72 -91 72q-70 0 -90 -72l-40 9q7 50 42.5 80t87.5 30t88 -30z" />
    <glyph glyph-name="uni0251" unicode="&#x251;" horiz-adv-x="585" 
d="M484.5 65.5q10.5 -17.5 37.5 -28.5l-19 -45q-39 11 -58 31.5t-25 54.5q-25 -41 -64.5 -65t-90.5 -24q-93 0 -147 72.5t-54 197.5q0 80 25.5 142.5t73 97.5t110.5 35q51 0 86 -20.5t61 -54.5l4 64h50v-401q0 -39 10.5 -56.5zM354 61.5q34 24.5 62 72.5v273q-56 79 -136 79
q-70 0 -112.5 -59t-41.5 -167q0 -108 38.5 -165.5t107.5 -57.5q48 0 82 24.5z" />
    <glyph glyph-name="uni0252" unicode="&#x252;" horiz-adv-x="585" 
d="M467 461.5q54 -72.5 54 -197.5q0 -80 -25.5 -142.5t-73 -97.5t-110.5 -35q-51 0 -85.5 20.5t-60.5 53.5l-5 -63h-50v401q0 39 -10.5 56.5t-37.5 28.5l19 45q39 -12 58 -32t25 -54q25 41 64.5 65t90.5 24q93 0 147 -72.5zM416.5 95.5q42.5 58.5 42.5 164.5q0 110 -38 168
t-108 58q-48 0 -82 -24t-62 -73v-273q56 -79 136 -79q69 0 111.5 58.5z" />
    <glyph glyph-name="amacron" unicode="&#x101;" horiz-adv-x="536" 
d="M441.5 57q10.5 -18 33.5 -27l-13 -41q-36 8 -55.5 28t-25.5 59q-57 -87 -163 -87q-75 0 -118.5 42.5t-43.5 113.5q0 81 57.5 125t159.5 44h100v51q0 63 -28 91.5t-93 28.5q-60 0 -142 -30l-15 44q88 35 165 35q171 0 171 -166v-252q0 -41 10.5 -59zM373 130v142h-91
q-80 0 -122 -31t-42 -93q0 -54 29 -83t81 -29q96 0 145 94zM138 676v47h241v-47h-241z" />
    <glyph glyph-name="aogonek" unicode="&#x105;" horiz-adv-x="536" 
d="M462 -11v0q-67 -30 -94.5 -56.5t-27.5 -61.5q0 -24 15 -38t47 -14q27 0 59 7l-6 -48q-35 -7 -58 -7q-53 0 -82 25.5t-29 66.5q0 45 33.5 79t102.5 62q-34 22 -41 72q-57 -87 -163 -87q-75 0 -118.5 42.5t-43.5 113.5q0 81 57.5 125t159.5 44h100v51q0 63 -28 91.5
t-93 28.5q-60 0 -142 -30l-15 44q88 35 165 35q171 0 171 -166v-252q0 -41 10.5 -59t33.5 -27zM373 130v142h-91q-80 0 -122 -31t-42 -93q0 -54 29 -83t81 -29q96 0 145 94z" />
    <glyph glyph-name="aring" unicode="&#xe5;" horiz-adv-x="536" 
d="M441.5 57q10.5 -18 33.5 -27l-13 -41q-36 8 -55.5 28t-25.5 59q-57 -87 -163 -87q-75 0 -118.5 42.5t-43.5 113.5q0 81 57.5 125t159.5 44h100v51q0 63 -28 91.5t-93 28.5q-60 0 -142 -30l-15 44q88 35 165 35q171 0 171 -166v-252q0 -41 10.5 -59zM373 130v142h-91
q-80 0 -122 -31t-42 -93q0 -54 29 -83t81 -29q96 0 145 94zM329.5 794.5q27.5 -26.5 27.5 -67.5t-27.5 -67.5t-70.5 -26.5q-44 0 -71.5 26.5t-27.5 67.5t27.5 67.5t71.5 26.5q43 0 70.5 -26.5zM217.5 769.5q-14.5 -15.5 -14.5 -42.5q0 -28 14.5 -43t41.5 -15q26 0 40.5 15
t14.5 43q0 27 -14.5 42.5t-40.5 15.5q-27 0 -41.5 -15.5z" />
    <glyph glyph-name="aringacute" unicode="&#x1fb;" horiz-adv-x="536" 
d="M170 783l-16 34l187 96l27 -52zM188.5 749.5q27.5 26.5 71.5 26.5q43 0 70.5 -26.5t27.5 -67.5t-27.5 -67.5t-70.5 -26.5q-44 0 -71.5 26.5t-27.5 67.5t27.5 67.5zM300.5 724.5q-14.5 15.5 -40.5 15.5q-27 0 -41.5 -15.5t-14.5 -42.5q0 -28 14.5 -43t41.5 -15
q26 0 40.5 15t14.5 43q0 27 -14.5 42.5zM441.5 57q10.5 -18 33.5 -27l-13 -41q-36 8 -55.5 28t-25.5 59q-57 -87 -163 -87q-75 0 -118.5 42.5t-43.5 113.5q0 81 57.5 125t159.5 44h100v51q0 63 -28 91.5t-93 28.5q-60 0 -142 -30l-15 44q88 35 165 35q171 0 171 -166v-252
q0 -41 10.5 -59zM373 130v142h-91q-80 0 -122 -31t-42 -93q0 -54 29 -83t81 -29q96 0 145 94z" />
    <glyph glyph-name="uni2C65" unicode="&#x2c65;" horiz-adv-x="536" 
d="M441.5 57q10.5 -18 33.5 -27l-13 -41q-36 8 -55.5 28t-25.5 59q-57 -87 -163 -87h-10l-16 -59l-31 8l15 55q-57 12 -88.5 52.5t-31.5 99.5q0 80 55.5 124t152.5 46l45 162q-26 8 -57 8q-60 0 -142 -30l-15 44q88 35 165 35q37 0 62 -7l18 65l31 -9l-18 -66
q78 -36 78 -149v-252q0 -41 10.5 -59zM338 462l-40 -147h75v50q0 70 -35 97zM373 130v142h-87l-65 -236h7q96 0 145 94zM136 78q18 -27 53 -37l63 230q-65 -6 -99.5 -36.5t-34.5 -86.5q0 -43 18 -70z" />
    <glyph glyph-name="atilde" unicode="&#xe3;" horiz-adv-x="536" 
d="M441.5 57q10.5 -18 33.5 -27l-13 -41q-36 8 -55.5 28t-25.5 59q-57 -87 -163 -87q-75 0 -118.5 42.5t-43.5 113.5q0 81 57.5 125t159.5 44h100v51q0 63 -28 91.5t-93 28.5q-60 0 -142 -30l-15 44q88 35 165 35q171 0 171 -166v-252q0 -41 10.5 -59zM373 130v142h-91
q-80 0 -122 -31t-42 -93q0 -54 29 -83t81 -29q96 0 145 94zM284 672.5q-15 6.5 -37 19.5q-16 10 -26.5 15t-20.5 5q-17 0 -29.5 -9.5t-26.5 -30.5l-36 18q37 68 92 68q17 0 31.5 -6t32.5 -18q18 -11 29 -16t24 -5q16 0 28.5 10t27.5 33l36 -18q-35 -72 -92 -72
q-18 0 -33 6.5z" />
    <glyph glyph-name="uni0250" unicode="&#x250;" horiz-adv-x="537" 
d="M426 68l15 -44q-88 -35 -165 -35q-171 0 -171 166v252q0 41 -10.5 59t-33.5 27l13 41q36 -7 55.5 -27t25.5 -61q54 88 163 88q75 0 118.5 -42.5t43.5 -113.5q0 -81 -57.5 -125t-159.5 -44h-100v-51q0 -63 28 -91.5t93 -28.5q60 0 142 30zM163 395v-144h91q80 0 122 31
t42 93q0 54 -29 83t-81 29q-94 0 -145 -92z" />
    <glyph glyph-name="ae" unicode="&#xe6;" horiz-adv-x="849" 
d="M786 239h-350q6 -102 49.5 -151.5t113.5 -49.5q41 0 73 12.5t68 39.5l28 -37q-39 -32 -80.5 -48t-91.5 -16q-63 0 -110.5 27.5t-75.5 79.5q-40 -57 -85 -82t-105 -25q-76 0 -120 43t-44 113q0 81 58.5 125.5t160.5 44.5h100v50q0 63 -28.5 91.5t-92.5 28.5
q-60 0 -142 -30l-16 44q88 35 165 35q67 0 105.5 -25.5t54.5 -75.5q54 101 167 101q97 0 148.5 -67.5t51.5 -185.5q0 -22 -2 -42zM730 299q0 88 -36 137.5t-107 49.5q-65 0 -106 -50t-45 -152h294v15zM316.5 61q38.5 25 74.5 80q-16 49 -16 115v16h-92q-79 0 -121.5 -31.5
t-42.5 -92.5q0 -54 29 -83t81 -29q49 0 87.5 25z" />
    <glyph glyph-name="aeacute" unicode="&#x1fd;" horiz-adv-x="849" 
d="M786 239h-350q6 -102 49.5 -151.5t113.5 -49.5q41 0 73 12.5t68 39.5l28 -37q-39 -32 -80.5 -48t-91.5 -16q-63 0 -110.5 27.5t-75.5 79.5q-40 -57 -85 -82t-105 -25q-76 0 -120 43t-44 113q0 81 58.5 125.5t160.5 44.5h100v50q0 63 -28.5 91.5t-92.5 28.5
q-60 0 -142 -30l-16 44q88 35 165 35q67 0 105.5 -25.5t54.5 -75.5q54 101 167 101q97 0 148.5 -67.5t51.5 -185.5q0 -22 -2 -42zM730 299q0 88 -36 137.5t-107 49.5q-65 0 -106 -50t-45 -152h294v15zM316.5 61q38.5 25 74.5 80q-16 49 -16 115v16h-92q-79 0 -121.5 -31.5
t-42.5 -92.5q0 -54 29 -83t81 -29q49 0 87.5 25zM526 730l-195 -85l-19 34l188 103z" />
    <glyph glyph-name="uni01E3" unicode="&#x1e3;" horiz-adv-x="849" 
d="M786 239h-350q6 -102 49.5 -151.5t113.5 -49.5q41 0 73 12.5t68 39.5l28 -37q-39 -32 -80.5 -48t-91.5 -16q-63 0 -110.5 27.5t-75.5 79.5q-40 -57 -85 -82t-105 -25q-76 0 -120 43t-44 113q0 81 58.5 125.5t160.5 44.5h100v50q0 63 -28.5 91.5t-92.5 28.5
q-60 0 -142 -30l-16 44q88 35 165 35q67 0 105.5 -25.5t54.5 -75.5q54 101 167 101q97 0 148.5 -67.5t51.5 -185.5q0 -22 -2 -42zM730 299q0 88 -36 137.5t-107 49.5q-65 0 -106 -50t-45 -152h294v15zM316.5 61q38.5 25 74.5 80q-16 49 -16 115v16h-92q-79 0 -121.5 -31.5
t-42.5 -92.5q0 -54 29 -83t81 -29q49 0 87.5 25zM304 676v47h241v-47h-241z" />
    <glyph glyph-name="b" unicode="b" horiz-adv-x="581" 
d="M462 464q50 -70 50 -200q0 -127 -52.5 -201t-146.5 -74q-47 0 -85.5 21t-65.5 56l-5 -66h-51v736l58 7v-293q61 84 157 84q91 0 141 -70zM411.5 94.5q38.5 57.5 38.5 169.5q0 222 -141 222q-46 0 -80 -23.5t-65 -66.5v-276q25 -39 60 -61t78 -22q71 0 109.5 57.5z" />
    <glyph glyph-name="uni1E03" unicode="&#x1e03;" horiz-adv-x="581" 
d="M462 464q50 -70 50 -200q0 -127 -52.5 -201t-146.5 -74q-47 0 -85.5 21t-65.5 56l-5 -66h-51v736l58 7v-293q61 84 157 84q91 0 141 -70zM411.5 94.5q38.5 57.5 38.5 169.5q0 222 -141 222q-46 0 -80 -23.5t-65 -66.5v-276q25 -39 60 -61t78 -22q71 0 109.5 57.5z
M334 918q12 -12 12 -30t-12 -30t-32 -12q-19 0 -31 12t-12 30t12 30t31 12q20 0 32 -12z" />
    <glyph glyph-name="uni1E05" unicode="&#x1e05;" horiz-adv-x="581" 
d="M462 464q50 -70 50 -200q0 -127 -52.5 -201t-146.5 -74q-47 0 -85.5 21t-65.5 56l-5 -66h-51v736l58 7v-293q61 84 157 84q91 0 141 -70zM411.5 94.5q38.5 57.5 38.5 169.5q0 222 -141 222q-46 0 -80 -23.5t-65 -66.5v-276q25 -39 60 -61t78 -22q71 0 109.5 57.5z
M271 -158q-12 12 -12 30t12 30t32 12q19 0 31 -12t12 -30t-12 -30t-31 -12q-20 0 -32 12z" />
    <glyph glyph-name="uni0253" unicode="&#x253;" horiz-adv-x="581" 
d="M462 464q50 -70 50 -200q0 -127 -52.5 -201t-146.5 -74q-47 0 -85.5 21t-65.5 56l-5 -66h-51v609q0 62 39 98t106 36q63 0 122 -28l-20 -43q-52 23 -98 23t-68.5 -21t-22.5 -67v-157q61 84 157 84q91 0 141 -70zM411.5 94.5q38.5 57.5 38.5 169.5q0 222 -141 222
q-46 0 -80 -23.5t-65 -66.5v-276q25 -39 60 -61t78 -22q71 0 109.5 57.5z" />
    <glyph glyph-name="uni02AD" unicode="&#x2ad;" horiz-adv-x="325" 
d="M30 532h265v-132h-45v90h-175v-90h-45v132zM30 132h265v-132h-45v90h-175v-90h-45v132z" />
    <glyph glyph-name="uni0298" unicode="&#x298;" horiz-adv-x="791" 
d="M567.5 654.5q74.5 -41.5 116 -121.5t41.5 -191q0 -109 -41 -188.5t-116 -122t-173 -42.5q-97 0 -171.5 41.5t-116 121t-41.5 189.5q0 109 42 189.5t116.5 123t170.5 42.5q98 0 172.5 -41.5zM197 568.5q-74 -78.5 -74 -227.5q0 -98 34.5 -166.5t96 -102.5t141.5 -34
q127 0 200 77.5t73 226.5t-73.5 227t-199.5 78q-124 0 -198 -78.5zM426 372q12 -12 12 -30t-12 -29.5t-31 -11.5t-31.5 12t-12.5 29q0 18 12.5 30t31.5 12t31 -12z" />
    <glyph glyph-name="uni02AC" unicode="&#x2ac;" horiz-adv-x="462" 
d="M351 400h-60l-59 216l-59 -216h-61l-71 263h52l52 -222l62 222h53l60 -222l53 222h48zM351 0h-60l-59 216l-59 -216h-61l-71 263h52l52 -222l62 222h53l60 -222l53 222h48z" />
    <glyph glyph-name="uni0180" unicode="&#x180;" horiz-adv-x="588" 
d="M469 464q50 -70 50 -200q0 -127 -52.5 -201t-146.5 -74q-47 0 -85.5 21t-64.5 56l-6 -66h-51v616h-77v47h77v73l58 7v-80h165v-47h-165v-165q61 83 157 83q91 0 141 -70zM418.5 94.5q38.5 57.5 38.5 169.5q0 222 -141 222q-47 0 -81 -23.5t-64 -66.5v-277q56 -82 138 -82
q71 0 109.5 57.5z" />
    <glyph glyph-name="uni0183" unicode="&#x183;" horiz-adv-x="581" 
d="M462 464q50 -70 50 -200q0 -127 -52.5 -201t-146.5 -74q-47 0 -85.5 21t-65.5 56l-5 -66h-51v736h294l-9 -47h-227v-239q61 84 157 84q91 0 141 -70zM411.5 94.5q38.5 57.5 38.5 169.5q0 222 -141 222q-46 0 -80 -23.5t-65 -66.5v-276q25 -39 60 -61t78 -22
q71 0 109.5 57.5z" />
    <glyph glyph-name="c" unicode="c" horiz-adv-x="469" 
d="M365 521.5q35 -12.5 68 -40.5l-29 -38q-26 21 -53.5 31t-62.5 10q-74 0 -118 -57.5t-44 -167.5q0 -109 43.5 -164t117.5 -55q35 0 63.5 11t57.5 33l28 -39q-66 -56 -150 -56q-67 0 -117 32t-77.5 92.5t-27.5 144.5q0 83 27.5 145.5t77.5 96.5t116 34q45 0 80 -12.5z" />
    <glyph glyph-name="cacute" unicode="&#x107;" horiz-adv-x="469" 
d="M365 521.5q35 -12.5 68 -40.5l-29 -38q-26 21 -53.5 31t-62.5 10q-74 0 -118 -57.5t-44 -167.5q0 -109 43.5 -164t117.5 -55q35 0 63.5 11t57.5 33l28 -39q-66 -56 -150 -56q-67 0 -117 32t-77.5 92.5t-27.5 144.5q0 83 27.5 145.5t77.5 96.5t116 34q45 0 80 -12.5z
M386 730l-195 -85l-19 34l188 103z" />
    <glyph glyph-name="cacute.loclPLK" horiz-adv-x="469" 
d="M365 521.5q35 -12.5 68 -40.5l-29 -38q-26 21 -53.5 31t-62.5 10q-74 0 -118 -57.5t-44 -167.5q0 -109 43.5 -164t117.5 -55q35 0 63.5 11t57.5 33l28 -39q-66 -56 -150 -56q-67 0 -117 32t-77.5 92.5t-27.5 144.5q0 83 27.5 145.5t77.5 96.5t116 34q45 0 80 -12.5z
M396 731l-121 -153l-30 19l102 166z" />
    <glyph glyph-name="ccaron" unicode="&#x10d;" horiz-adv-x="469" 
d="M365 521.5q35 -12.5 68 -40.5l-29 -38q-26 21 -53.5 31t-62.5 10q-74 0 -118 -57.5t-44 -167.5q0 -109 43.5 -164t117.5 -55q35 0 63.5 11t57.5 33l28 -39q-66 -56 -150 -56q-67 0 -117 32t-77.5 92.5t-27.5 144.5q0 83 27.5 145.5t77.5 96.5t116 34q45 0 80 -12.5z
M432 739l-129 -106h-36l-130 106l26 30l122 -84l121 84z" />
    <glyph glyph-name="ccedilla" unicode="&#xe7;" horiz-adv-x="469" 
d="M367.5 -88q22.5 -20 22.5 -52q0 -41 -30 -64t-75 -23q-48 0 -80 21l18 36q27 -15 61 -15q24 0 39.5 11t15.5 34q0 22 -21.5 33t-67.5 11l8 87q-90 10 -142 80t-52 187q0 83 27.5 145.5t77.5 96.5t116 34q45 0 80 -12.5t68 -40.5l-29 -38q-26 21 -53.5 31t-62.5 10
q-74 0 -118 -57.5t-44 -167.5q0 -109 43.5 -164t117.5 -55q35 0 63.5 11t57.5 33l28 -39q-59 -52 -138 -56v-53q47 -4 69.5 -24z" />
    <glyph glyph-name="ccircumflex" unicode="&#x109;" horiz-adv-x="469" 
d="M365 521.5q35 -12.5 68 -40.5l-29 -38q-26 21 -53.5 31t-62.5 10q-74 0 -118 -57.5t-44 -167.5q0 -109 43.5 -164t117.5 -55q35 0 63.5 11t57.5 33l28 -39q-66 -56 -150 -56q-67 0 -117 32t-77.5 92.5t-27.5 144.5q0 83 27.5 145.5t77.5 96.5t116 34q45 0 80 -12.5z
M137 674l129 105h36l130 -105l-26 -31l-122 85l-121 -85z" />
    <glyph glyph-name="uni0255" unicode="&#x255;" horiz-adv-x="480" 
d="M422.5 190q29.5 -28 29.5 -74q0 -59 -44.5 -93t-118.5 -34q-50 0 -90 17l-33 -71l-41 17l35 75q-46 33 -71 92t-25 139q0 83 27.5 145.5t77.5 96.5t116 34q45 0 80 -12.5t68 -40.5l-29 -39q-26 22 -53.5 32t-62.5 10q-74 0 -118 -57.5t-44 -167.5q0 -125 59 -181l7 15
q29 67 63.5 96t87.5 29q50 0 79.5 -28zM369.5 58.5q29.5 18.5 29.5 57.5q0 27 -14.5 41.5t-43.5 14.5q-37 0 -63 -24.5t-57 -92.5q30 -15 72 -15q47 0 76.5 18.5z" />
    <glyph glyph-name="cdotaccent" unicode="&#x10b;" horiz-adv-x="469" 
d="M365 521.5q35 -12.5 68 -40.5l-29 -38q-26 21 -53.5 31t-62.5 10q-74 0 -118 -57.5t-44 -167.5q0 -109 43.5 -164t117.5 -55q35 0 63.5 11t57.5 33l28 -39q-66 -56 -150 -56q-67 0 -117 32t-77.5 92.5t-27.5 144.5q0 83 27.5 145.5t77.5 96.5t116 34q45 0 80 -12.5z
M317 741q12 -12 12 -30t-12 -30t-32 -12q-19 0 -31 12t-12 30t12 30t31 12q20 0 32 -12z" />
    <glyph glyph-name="uni0188" unicode="&#x188;" horiz-adv-x="469" 
d="M602 709l-24 -37q-20 12 -36.5 17.5t-39.5 5.5q-69 0 -69 -83v-131l-25 -33q-28 18 -56 27t-64 9q-74 0 -118 -57.5t-44 -167.5q0 -109 43.5 -164t117.5 -55q35 0 63.5 11t56.5 34l29 -40q-66 -56 -150 -56q-67 0 -117 32t-77.5 92.5t-27.5 144.5q0 83 27.5 145.5
t77.5 96.5t116 34q51 0 90 -21v96q0 66 33.5 100t91.5 34t102 -34z" />
    <glyph glyph-name="uni0297" unicode="&#x297;" horiz-adv-x="488" 
d="M385 521.5q34 -12.5 67 -40.5l-28 -38q-26 21 -53.5 31t-62.5 10q-48 0 -84.5 -38t-57 -111t-20.5 -175q0 -152 44 -235t118 -83q34 0 62 11.5t57 33.5l29 -39q-65 -56 -148 -56q-68 0 -119 44.5t-78.5 127.5t-27.5 195t27.5 197t78.5 131.5t119 46.5q43 0 77 -12.5z" />
    <glyph glyph-name="uni023C" unicode="&#x23c;" horiz-adv-x="469" 
d="M286 -11q-33 0 -70 10l-19 -69l-32 8l20 74q-58 29 -89.5 92t-31.5 154q0 83 27.5 145.5t77.5 96.5t116 34q23 0 43 -3l17 61l31 -9l-16 -60q36 -11 73 -42l-29 -38q-27 23 -57 33l-117 -426q24 -10 57 -10q35 0 63.5 11t57.5 33l28 -39q-66 -56 -150 -56zM200 65
l115 418q-9 1 -27 1q-74 0 -118 -57.5t-44 -167.5q0 -141 74 -194z" />
    <glyph glyph-name="d" unicode="d" horiz-adv-x="585" 
d="M479 736v-736h-50l-7 80q-24 -42 -63.5 -66.5t-93.5 -24.5q-91 0 -143.5 72.5t-52.5 197.5q0 81 24.5 143t71 97t109.5 35q89 0 147 -71v280zM358.5 61.5q34.5 24.5 62.5 72.5v273q-56 79 -137 79q-71 0 -112.5 -59t-40.5 -167q0 -108 38 -165.5t105 -57.5
q50 0 84.5 24.5z" />
    <glyph glyph-name="eth" unicode="&#xf0;" horiz-adv-x="561" 
d="M448 508.5q39 -91.5 39 -228.5q0 -139 -58 -215t-156 -76q-95 0 -152 65.5t-57 178.5q0 62 22.5 115.5t66.5 86.5t106 33q96 0 162 -80q-10 75 -42.5 134t-90.5 105l-76 -76l-42 19l80 83q-58 33 -122 45l13 46q77 -15 145 -55l69 73l35 -31l-66 -67q85 -64 124 -155.5z
M387 100q41 63 41 182q0 20 -2 48q-67 91 -159 91q-70 0 -106.5 -52.5t-36.5 -134.5q0 -94 39.5 -145.5t109.5 -51.5q73 0 114 63z" />
    <glyph glyph-name="uni0238" unicode="&#x238;" horiz-adv-x="856" 
d="M739 463.5q48 -70.5 48 -199.5q0 -126 -51 -200.5t-138 -74.5q-45 0 -80.5 25.5t-58.5 65.5l-7 -80h-43l-7 80q-24 -41 -62 -66t-85 -25q-56 0 -98 33t-65 94t-23 143q0 80 24 142.5t68 97.5t103 35q43 0 77.5 -21.5t59.5 -59.5v283l58 7v-292q60 83 149 83
q83 0 131 -70.5zM340.5 61.5q32.5 24.5 60.5 72.5v266q-30 43 -60 64.5t-69 21.5q-41 0 -73 -26.5t-50 -77.5t-18 -122q0 -107 36.5 -165t96.5 -58q44 0 76.5 24.5zM688.5 95q36.5 58 36.5 169q0 112 -33.5 167t-94.5 55q-43 0 -75 -22.5t-63 -65.5v-260q27 -50 58.5 -75.5
t73.5 -25.5q61 0 97.5 58z" />
    <glyph glyph-name="dcaron" unicode="&#x10f;" horiz-adv-x="585" 
d="M479 736v-736h-50l-7 80q-24 -42 -63.5 -66.5t-93.5 -24.5q-91 0 -143.5 72.5t-52.5 197.5q0 81 24.5 143t71 97t109.5 35q89 0 147 -71v280zM358.5 61.5q34.5 24.5 62.5 72.5v273q-56 79 -137 79q-71 0 -112.5 -59t-40.5 -167q0 -108 38 -165.5t105 -57.5
q50 0 84.5 24.5zM613 736l-39 -164l-36 5l19 165z" />
    <glyph glyph-name="uni1E13" unicode="&#x1e13;" horiz-adv-x="585" 
d="M479 736v-736h-50l-7 80q-24 -42 -63.5 -66.5t-93.5 -24.5q-91 0 -143.5 72.5t-52.5 197.5q0 81 24.5 143t71 97t109.5 35q89 0 147 -71v280zM358.5 61.5q34.5 24.5 62.5 72.5v273q-56 79 -137 79q-71 0 -112.5 -59t-40.5 -167q0 -108 38 -165.5t105 -57.5
q50 0 84.5 24.5zM155 -176l129 106h36l130 -106l-26 -30l-122 85l-121 -85z" />
    <glyph glyph-name="dcroat" unicode="&#x111;" horiz-adv-x="592" 
d="M556 663v-47h-77v-616h-50l-7 80q-24 -42 -63.5 -66.5t-93.5 -24.5q-91 0 -143.5 72.5t-52.5 197.5q0 81 24.5 143t71 97t109.5 35q89 0 147 -71v153h-164v47h164v80l58 -7v-73h77zM358.5 61.5q34.5 24.5 62.5 72.5v273q-56 79 -137 79q-71 0 -112.5 -59t-40.5 -167
q0 -108 38 -165.5t105 -57.5q50 0 84.5 24.5z" />
    <glyph glyph-name="uni0221" unicode="&#x221;" horiz-adv-x="694" 
d="M691.5 176q27.5 -26 27.5 -67q0 -54 -41.5 -87t-106.5 -33q-46 0 -84 20l-36 -74l-41 17l43 85q-19 22 -26 50q-24 -45 -64.5 -71.5t-97.5 -26.5q-91 0 -143.5 72.5t-52.5 197.5q0 81 24.5 143t71 97t109.5 35q89 0 147 -71v280l58 -7v-609q0 -17 3 -31q26 52 58 79
t79 27q45 0 72.5 -26zM358.5 61.5q34.5 24.5 62.5 72.5v273q-56 79 -137 79q-71 0 -112.5 -59t-40.5 -167q0 -108 38 -165.5t105 -57.5q50 0 84.5 24.5zM641 58q25 18 25 51q0 22 -13.5 35t-36.5 13q-34 0 -57 -23t-51 -80q21 -14 63 -14q45 0 70 18z" />
    <glyph glyph-name="uni1E0B" unicode="&#x1e0b;" horiz-adv-x="585" 
d="M479 736v-736h-50l-7 80q-24 -42 -63.5 -66.5t-93.5 -24.5q-91 0 -143.5 72.5t-52.5 197.5q0 81 24.5 143t71 97t109.5 35q89 0 147 -71v280zM358.5 61.5q34.5 24.5 62.5 72.5v273q-56 79 -137 79q-71 0 -112.5 -59t-40.5 -167q0 -108 38 -165.5t105 -57.5
q50 0 84.5 24.5zM320 918q12 -12 12 -30t-12 -30t-32 -12q-19 0 -31 12t-12 30t12 30t31 12q20 0 32 -12z" />
    <glyph glyph-name="uni1E0D" unicode="&#x1e0d;" horiz-adv-x="585" 
d="M479 736v-736h-50l-7 80q-24 -42 -63.5 -66.5t-93.5 -24.5q-91 0 -143.5 72.5t-52.5 197.5q0 81 24.5 143t71 97t109.5 35q89 0 147 -71v280zM358.5 61.5q34.5 24.5 62.5 72.5v273q-56 79 -137 79q-71 0 -112.5 -59t-40.5 -167q0 -108 38 -165.5t105 -57.5
q50 0 84.5 24.5zM271 -158q-12 12 -12 30t12 30t32 12q19 0 31 -12t12 -30t-12 -30t-31 -12q-20 0 -32 12z" />
    <glyph glyph-name="uni018D" unicode="&#x18d;" horiz-adv-x="567" 
d="M355.5 -148.5q29.5 8.5 61.5 29.5l31 -37q-37 -25 -76 -37t-91 -12q-75 0 -118.5 35t-43.5 87q0 41 24.5 72t79.5 56q-75 34 -117 93.5t-42 146.5q0 118 59.5 183.5t160.5 65.5q103 0 161 -67.5t58 -181.5q0 -101 -45.5 -158t-146.5 -98q-54 -21 -82.5 -37.5t-39.5 -34
t-11 -40.5q0 -33 28 -53.5t79 -20.5q41 0 70.5 8.5zM266 63q68 26 105.5 54.5t54 68t16.5 99.5q0 99 -40.5 149.5t-117.5 50.5q-75 0 -116.5 -51.5t-41.5 -148.5q0 -156 140 -222z" />
    <glyph glyph-name="uni02A4" unicode="&#x2a4;" horiz-adv-x="905" 
d="M815 150q58 -50 58 -146q0 -62 -27 -109.5t-77 -73.5t-117 -26q-63 0 -111 21.5t-86 64.5l35 32q36 -37 74 -53t87 -16q78 0 119 42.5t41 118.5q0 79 -43 114t-137 35h-64v46l213 273h-301v-473h-50l-7 80q-24 -42 -63.5 -66.5t-93.5 -24.5q-91 0 -143.5 72.5
t-52.5 197.5q0 81 24.5 143t71 97t109.5 35q89 0 147 -71v280l58 -7v-213h369v-45l-220 -278h12q117 0 175 -50zM358.5 61.5q34.5 24.5 62.5 72.5v273q-56 79 -137 79q-71 0 -112.5 -59t-40.5 -167q0 -108 38 -165.5t105 -57.5q50 0 84.5 24.5z" />
    <glyph glyph-name="uni0257" unicode="&#x257;" horiz-adv-x="585" 
d="M648 709l-24 -37q-18 11 -35.5 17t-40.5 6q-69 0 -69 -83v-612h-50l-7 80q-24 -42 -63.5 -66.5t-93.5 -24.5q-91 0 -143.5 72.5t-52.5 197.5q0 81 24.5 143t71 97t109.5 35q89 0 147 -71v146q0 66 33.5 100t91.5 34t102 -34zM358.5 61.5q34.5 24.5 62.5 72.5v273
q-56 79 -137 79q-71 0 -112.5 -59t-40.5 -167q0 -108 38 -165.5t105 -57.5q50 0 84.5 24.5z" />
    <glyph glyph-name="uni1E0F" unicode="&#x1e0f;" horiz-adv-x="585" 
d="M479 736v-736h-50l-7 80q-24 -42 -63.5 -66.5t-93.5 -24.5q-91 0 -143.5 72.5t-52.5 197.5q0 81 24.5 143t71 97t109.5 35q89 0 147 -71v280zM358.5 61.5q34.5 24.5 62.5 72.5v273q-56 79 -137 79q-71 0 -112.5 -59t-40.5 -167q0 -108 38 -165.5t105 -57.5
q50 0 84.5 24.5zM182 -159v47h241v-47h-241z" />
    <glyph glyph-name="uni0256" unicode="&#x256;" horiz-adv-x="585" 
d="M648 -171q-44 -34 -101 -34t-91.5 34t-34.5 100v149q-24 -41 -63 -65t-93 -24q-91 0 -143.5 72.5t-52.5 197.5q0 81 24.5 143t71 97t109.5 35q89 0 147 -71v280l58 -7v-810q0 -83 70 -83q23 0 39.5 6t35.5 17zM358.5 61.5q34.5 24.5 62.5 72.5v273q-56 79 -137 79
q-71 0 -112.5 -59t-40.5 -167q0 -108 38 -165.5t105 -57.5q50 0 84.5 24.5z" />
    <glyph glyph-name="uni018C" unicode="&#x18c;" horiz-adv-x="585" 
d="M479 0h-50l-7 80q-24 -42 -63.5 -66.5t-93.5 -24.5q-91 0 -143.5 72.5t-52.5 197.5q0 81 24.5 143t71 97t109.5 35q89 0 147 -71v226h-231v47h289v-736zM358.5 61.5q34.5 24.5 62.5 72.5v273q-56 79 -137 79q-71 0 -112.5 -59t-40.5 -167q0 -108 38 -165.5t105 -57.5
q50 0 84.5 24.5z" />
    <glyph glyph-name="uni01F3" unicode="&#x1f3;" horiz-adv-x="1008" 
d="M479 736v-736h-50l-7 80q-24 -42 -63.5 -66.5t-93.5 -24.5q-91 0 -143.5 72.5t-52.5 197.5q0 81 24.5 143t71 97t109.5 35q89 0 147 -71v280zM358.5 61.5q34.5 24.5 62.5 72.5v273q-56 79 -137 79q-71 0 -112.5 -59t-40.5 -167q0 -108 38 -165.5t105 -57.5
q50 0 84.5 24.5zM973 478l-292 -428h290l-6 -50h-352v45l292 428h-268v50h336v-45z" />
    <glyph glyph-name="uni02A3" unicode="&#x2a3;" horiz-adv-x="879" 
d="M845 478l-301 -428h299l-7 -50h-357h-50l-7 80q-24 -42 -63.5 -66.5t-93.5 -24.5q-91 0 -143.5 72.5t-52.5 197.5q0 81 24.5 143t71 97t109.5 35q89 0 147 -71v280l58 -7v-213h366v-45zM358.5 61.5q34.5 24.5 62.5 72.5v273q-56 79 -137 79q-71 0 -112.5 -59t-40.5 -167
q0 -108 38 -165.5t105 -57.5q50 0 84.5 24.5zM779 473h-300v-427z" />
    <glyph glyph-name="uni01C6" unicode="&#x1c6;" horiz-adv-x="1008" 
d="M479 736v-736h-50l-7 80q-24 -42 -63.5 -66.5t-93.5 -24.5q-91 0 -143.5 72.5t-52.5 197.5q0 81 24.5 143t71 97t109.5 35q89 0 147 -71v280zM358.5 61.5q34.5 24.5 62.5 72.5v273q-56 79 -137 79q-71 0 -112.5 -59t-40.5 -167q0 -108 38 -165.5t105 -57.5
q50 0 84.5 24.5zM973 478l-292 -428h290l-6 -50h-352v45l292 428h-268v50h336v-45zM948 739l-129 -106h-36l-130 106l26 30l122 -84l121 84z" />
    <glyph glyph-name="uni02A5" unicode="&#x2a5;" horiz-adv-x="888" 
d="M862.5 27q-45.5 -27 -139.5 -27q-4 -33 -4 -75l1 -36h-46q-1 55 3 111h-198h-50l-7 80q-24 -42 -63.5 -66.5t-93.5 -24.5q-91 0 -143.5 72.5t-52.5 197.5q0 81 24.5 143t71 97t109.5 35q89 0 147 -71v280l58 -7v-213h366v-45l-298 -428h136q8 74 42 114t88 40
q42 0 68.5 -24.5t26.5 -67.5q0 -58 -45.5 -85zM358.5 61.5q34.5 24.5 62.5 72.5v273q-56 79 -137 79q-71 0 -112.5 -59t-40.5 -167q0 -108 38 -165.5t105 -57.5q50 0 84.5 24.5zM479 46l298 427h-298v-427zM729 50q70 0 99 14.5t29 48.5q0 23 -12.5 36t-35.5 13
q-67 0 -80 -112z" />
    <glyph glyph-name="e" unicode="e" horiz-adv-x="538" 
d="M475 239h-349q5 -102 48.5 -151.5t114.5 -49.5q41 0 72.5 12.5t68.5 39.5l27 -37q-39 -32 -80 -48t-91 -16q-104 0 -163 71t-59 197q0 83 25.5 145.5t73 97t110.5 34.5q100 0 152 -67.5t52 -185.5q0 -22 -2 -42zM420 299q0 88 -36.5 137.5t-108.5 49.5q-64 0 -104.5 -50
t-45.5 -152h295v15z" />
    <glyph glyph-name="eacute" unicode="&#xe9;" horiz-adv-x="538" 
d="M475 239h-349q5 -102 48.5 -151.5t114.5 -49.5q41 0 72.5 12.5t68.5 39.5l27 -37q-39 -32 -80 -48t-91 -16q-104 0 -163 71t-59 197q0 83 25.5 145.5t73 97t110.5 34.5q100 0 152 -67.5t52 -185.5q0 -22 -2 -42zM420 299q0 88 -36.5 137.5t-108.5 49.5q-64 0 -104.5 -50
t-45.5 -152h295v15zM377 730l-195 -85l-19 34l188 103z" />
    <glyph glyph-name="ebreve" unicode="&#x115;" horiz-adv-x="538" 
d="M475 239h-349q5 -102 48.5 -151.5t114.5 -49.5q41 0 72.5 12.5t68.5 39.5l27 -37q-39 -32 -80 -48t-91 -16q-104 0 -163 71t-59 197q0 83 25.5 145.5t73 97t110.5 34.5q100 0 152 -67.5t52 -185.5q0 -22 -2 -42zM420 299q0 88 -36.5 137.5t-108.5 49.5q-64 0 -104.5 -50
t-45.5 -152h295v15zM188.5 683q-35.5 30 -42.5 80l40 9q20 -72 90 -72q71 0 91 72l40 -9q-7 -50 -43 -80t-88 -30t-87.5 30z" />
    <glyph glyph-name="ecaron" unicode="&#x11b;" horiz-adv-x="538" 
d="M475 239h-349q5 -102 48.5 -151.5t114.5 -49.5q41 0 72.5 12.5t68.5 39.5l27 -37q-39 -32 -80 -48t-91 -16q-104 0 -163 71t-59 197q0 83 25.5 145.5t73 97t110.5 34.5q100 0 152 -67.5t52 -185.5q0 -22 -2 -42zM420 299q0 88 -36.5 137.5t-108.5 49.5q-64 0 -104.5 -50
t-45.5 -152h295v15zM423 739l-129 -106h-36l-130 106l26 30l122 -84l121 84z" />
    <glyph glyph-name="uni0229" unicode="&#x229;" horiz-adv-x="538" 
d="M475 239h-349q5 -102 48.5 -151.5t114.5 -49.5q41 0 72.5 12.5t68.5 39.5l27 -37q-70 -58 -153 -63v-54q47 -4 69.5 -24t22.5 -52q0 -41 -30 -64t-75 -23q-48 0 -80 21l18 36q27 -15 61 -15q24 0 39.5 11t15.5 34q0 22 -21.5 33t-67.5 11l8 86q-94 8 -147 78t-53 189
q0 83 25.5 145.5t73 97t110.5 34.5q100 0 152 -67.5t52 -185.5q0 -22 -2 -42zM420 299q0 88 -36.5 137.5t-108.5 49.5q-64 0 -104.5 -50t-45.5 -152h295v15z" />
    <glyph glyph-name="ecircumflex" unicode="&#xea;" horiz-adv-x="538" 
d="M475 239h-349q5 -102 48.5 -151.5t114.5 -49.5q41 0 72.5 12.5t68.5 39.5l27 -37q-39 -32 -80 -48t-91 -16q-104 0 -163 71t-59 197q0 83 25.5 145.5t73 97t110.5 34.5q100 0 152 -67.5t52 -185.5q0 -22 -2 -42zM420 299q0 88 -36.5 137.5t-108.5 49.5q-64 0 -104.5 -50
t-45.5 -152h295v15zM128 674l129 105h36l130 -105l-26 -31l-122 85l-121 -85z" />
    <glyph glyph-name="uni1EBF" unicode="&#x1ebf;" horiz-adv-x="538" 
d="M389 693l-26 24l108 132l39 -36zM152 587l-26 30l130 102h36l129 -102l-26 -30l-121 80zM425 466.5q52 -67.5 52 -185.5q0 -22 -2 -42h-349q5 -102 48.5 -151.5t114.5 -49.5q41 0 72.5 12.5t68.5 39.5l27 -37q-39 -32 -80 -48t-91 -16q-104 0 -163 71t-59 197
q0 83 25.5 145.5t73 97t110.5 34.5q100 0 152 -67.5zM420 299q0 88 -36.5 137.5t-108.5 49.5q-64 0 -104.5 -50t-45.5 -152h295v15z" />
    <glyph glyph-name="uni1EC7" unicode="&#x1ec7;" horiz-adv-x="538" 
d="M475 239h-349q5 -102 48.5 -151.5t114.5 -49.5q41 0 72.5 12.5t68.5 39.5l27 -37q-39 -32 -80 -48t-91 -16q-104 0 -163 71t-59 197q0 83 25.5 145.5t73 97t110.5 34.5q100 0 152 -67.5t52 -185.5q0 -22 -2 -42zM420 299q0 88 -36.5 137.5t-108.5 49.5q-64 0 -104.5 -50
t-45.5 -152h295v15zM128 674l129 105h36l130 -105l-26 -31l-122 85l-121 -85zM258 -158q-12 12 -12 30t12 30t32 12q19 0 31 -12t12 -30t-12 -30t-31 -12q-20 0 -32 12z" />
    <glyph glyph-name="uni1EC1" unicode="&#x1ec1;" horiz-adv-x="538" 
d="M163 693l-120 120l38 36l108 -132zM126 617l130 102h36l129 -102l-26 -30l-121 80l-122 -80zM475 239h-349q5 -102 48.5 -151.5t114.5 -49.5q41 0 72.5 12.5t68.5 39.5l27 -37q-39 -32 -80 -48t-91 -16q-104 0 -163 71t-59 197q0 83 25.5 145.5t73 97t110.5 34.5
q100 0 152 -67.5t52 -185.5q0 -22 -2 -42zM420 299q0 88 -36.5 137.5t-108.5 49.5q-64 0 -104.5 -50t-45.5 -152h295v15z" />
    <glyph glyph-name="uni1EC3" unicode="&#x1ec3;" horiz-adv-x="538" 
d="M474 881q25 -22 25 -58q0 -34 -19.5 -53t-55.5 -24v-57h-48v84q35 2 52.5 12t17.5 34q0 20 -12.5 30.5t-34.5 10.5q-31 0 -58 -15l-16 36q37 22 81 22q43 0 68 -22zM152 587l-26 30l130 102h36l129 -102l-26 -30l-121 80zM425 466.5q52 -67.5 52 -185.5q0 -22 -2 -42
h-349q5 -102 48.5 -151.5t114.5 -49.5q41 0 72.5 12.5t68.5 39.5l27 -37q-39 -32 -80 -48t-91 -16q-104 0 -163 71t-59 197q0 83 25.5 145.5t73 97t110.5 34.5q100 0 152 -67.5zM420 299q0 88 -36.5 137.5t-108.5 49.5q-64 0 -104.5 -50t-45.5 -152h295v15z" />
    <glyph glyph-name="uni1EC5" unicode="&#x1ec5;" horiz-adv-x="538" 
d="M186.5 782.5q-12.5 -9.5 -26.5 -30.5l-36 18q37 68 92 68q17 0 31.5 -6t32.5 -18q18 -11 29 -16t24 -5q16 0 28.5 10t27.5 33l36 -18q-35 -72 -92 -72q-18 0 -33 6.5t-37 19.5q-16 10 -26.5 15t-20.5 5q-17 0 -29.5 -9.5zM292 709l129 -102l-26 -30l-121 80l-122 -80
l-26 30l130 102h36zM475 239h-349q5 -102 48.5 -151.5t114.5 -49.5q41 0 72.5 12.5t68.5 39.5l27 -37q-39 -32 -80 -48t-91 -16q-104 0 -163 71t-59 197q0 83 25.5 145.5t73 97t110.5 34.5q100 0 152 -67.5t52 -185.5q0 -22 -2 -42zM420 299q0 88 -36.5 137.5t-108.5 49.5
q-64 0 -104.5 -50t-45.5 -152h295v15z" />
    <glyph glyph-name="uni0205" unicode="&#x205;" horiz-adv-x="538" 
d="M475 239h-349q5 -102 48.5 -151.5t114.5 -49.5q41 0 72.5 12.5t68.5 39.5l27 -37q-39 -32 -80 -48t-91 -16q-104 0 -163 71t-59 197q0 83 25.5 145.5t73 97t110.5 34.5q100 0 152 -67.5t52 -185.5q0 -22 -2 -42zM420 299q0 88 -36.5 137.5t-108.5 49.5q-64 0 -104.5 -50
t-45.5 -152h295v15zM247 660l-38 -18l-93 142l52 27zM368 664l-38 -17l-84 136l52 28z" />
    <glyph glyph-name="edieresis" unicode="&#xeb;" horiz-adv-x="538" 
d="M475 239h-349q5 -102 48.5 -151.5t114.5 -49.5q41 0 72.5 12.5t68.5 39.5l27 -37q-39 -32 -80 -48t-91 -16q-104 0 -163 71t-59 197q0 83 25.5 145.5t73 97t110.5 34.5q100 0 152 -67.5t52 -185.5q0 -22 -2 -42zM420 299q0 88 -36.5 137.5t-108.5 49.5q-64 0 -104.5 -50
t-45.5 -152h295v15zM209.5 730.5q11.5 -11.5 11.5 -28.5t-11.5 -28t-28.5 -11t-28.5 11t-11.5 28t11.5 28.5t28.5 11.5t28.5 -11.5zM398.5 730.5q11.5 -11.5 11.5 -28.5t-11.5 -28t-28.5 -11t-28.5 11t-11.5 28t11.5 28.5t28.5 11.5t28.5 -11.5z" />
    <glyph glyph-name="edotaccent" unicode="&#x117;" horiz-adv-x="538" 
d="M475 239h-349q5 -102 48.5 -151.5t114.5 -49.5q41 0 72.5 12.5t68.5 39.5l27 -37q-39 -32 -80 -48t-91 -16q-104 0 -163 71t-59 197q0 83 25.5 145.5t73 97t110.5 34.5q100 0 152 -67.5t52 -185.5q0 -22 -2 -42zM420 299q0 88 -36.5 137.5t-108.5 49.5q-64 0 -104.5 -50
t-45.5 -152h295v15zM308 741q12 -12 12 -30t-12 -30t-32 -12q-19 0 -31 12t-12 30t12 30t31 12q20 0 32 -12z" />
    <glyph glyph-name="uni1EB9" unicode="&#x1eb9;" horiz-adv-x="538" 
d="M475 239h-349q5 -102 48.5 -151.5t114.5 -49.5q41 0 72.5 12.5t68.5 39.5l27 -37q-39 -32 -80 -48t-91 -16q-104 0 -163 71t-59 197q0 83 25.5 145.5t73 97t110.5 34.5q100 0 152 -67.5t52 -185.5q0 -22 -2 -42zM420 299q0 88 -36.5 137.5t-108.5 49.5q-64 0 -104.5 -50
t-45.5 -152h295v15zM258 -158q-12 12 -12 30t12 30t32 12q19 0 31 -12t12 -30t-12 -30t-31 -12q-20 0 -32 12z" />
    <glyph glyph-name="egrave" unicode="&#xe8;" horiz-adv-x="538" 
d="M475 239h-349q5 -102 48.5 -151.5t114.5 -49.5q41 0 72.5 12.5t68.5 39.5l27 -37q-39 -32 -80 -48t-91 -16q-104 0 -163 71t-59 197q0 83 25.5 145.5t73 97t110.5 34.5q100 0 152 -67.5t52 -185.5q0 -22 -2 -42zM420 299q0 88 -36.5 137.5t-108.5 49.5q-64 0 -104.5 -50
t-45.5 -152h295v15zM387 679l-18 -34l-196 85l26 52z" />
    <glyph glyph-name="uni1EBB" unicode="&#x1ebb;" horiz-adv-x="538" 
d="M475 239h-349q5 -102 48.5 -151.5t114.5 -49.5q41 0 72.5 12.5t68.5 39.5l27 -37q-39 -32 -80 -48t-91 -16q-104 0 -163 71t-59 197q0 83 25.5 145.5t73 97t110.5 34.5q100 0 152 -67.5t52 -185.5q0 -22 -2 -42zM420 299q0 88 -36.5 137.5t-108.5 49.5q-64 0 -104.5 -50
t-45.5 -152h295v15zM249 700q35 2 52.5 12t17.5 34q0 20 -12.5 30.5t-34.5 10.5q-31 0 -58 -15l-16 36q37 22 81 22q43 0 68 -22t25 -58q0 -34 -19.5 -53t-55.5 -24v-57h-48v84z" />
    <glyph glyph-name="uni0207" unicode="&#x207;" horiz-adv-x="538" 
d="M475 239h-349q5 -102 48.5 -151.5t114.5 -49.5q41 0 72.5 12.5t68.5 39.5l27 -37q-39 -32 -80 -48t-91 -16q-104 0 -163 71t-59 197q0 83 25.5 145.5t73 97t110.5 34.5q100 0 152 -67.5t52 -185.5q0 -22 -2 -42zM420 299q0 88 -36.5 137.5t-108.5 49.5q-64 0 -104.5 -50
t-45.5 -152h295v15zM364 712q36 -30 43 -80l-40 -9q-20 72 -91 72q-70 0 -90 -72l-40 9q7 50 42.5 80t87.5 30t88 -30z" />
    <glyph glyph-name="emacron" unicode="&#x113;" horiz-adv-x="538" 
d="M475 239h-349q5 -102 48.5 -151.5t114.5 -49.5q41 0 72.5 12.5t68.5 39.5l27 -37q-39 -32 -80 -48t-91 -16q-104 0 -163 71t-59 197q0 83 25.5 145.5t73 97t110.5 34.5q100 0 152 -67.5t52 -185.5q0 -22 -2 -42zM420 299q0 88 -36.5 137.5t-108.5 49.5q-64 0 -104.5 -50
t-45.5 -152h295v15zM156 676v47h241v-47h-241z" />
    <glyph glyph-name="eogonek" unicode="&#x119;" horiz-adv-x="538" 
d="M475 239h-349q5 -102 48.5 -151.5t114.5 -49.5q41 0 72.5 12.5t68.5 39.5l27 -37q-42 -34 -83 -49q-66 -30 -93 -56t-27 -61q0 -24 16 -38t48 -14q25 0 57 7l-6 -48q-35 -7 -58 -7q-53 0 -82 25.5t-29 66.5q0 69 83 110q-102 1 -160.5 72t-58.5 196q0 83 25.5 145.5
t73 97t110.5 34.5q100 0 152 -67.5t52 -185.5q0 -22 -2 -42zM420 299q0 88 -36.5 137.5t-108.5 49.5q-64 0 -104.5 -50t-45.5 -152h295v15z" />
    <glyph glyph-name="uni025B" unicode="&#x25b;" horiz-adv-x="460" 
d="M421 487l-29 -37q-28 18 -58 27t-69 9q-57 0 -88.5 -25t-31.5 -69q0 -42 33.5 -68.5t89.5 -26.5h60l-8 -47h-56q-71 0 -104.5 -26t-33.5 -81q0 -49 36 -77t98 -28q47 0 80 12.5t68 38.5l29 -37q-76 -63 -180 -63q-86 0 -139.5 40.5t-53.5 112.5q0 62 35.5 95t96.5 40
q-111 24 -111 118q0 64 48.5 101.5t126.5 37.5q91 0 161 -47z" />
    <glyph glyph-name="uni029A" unicode="&#x29a;" horiz-adv-x="558" 
d="M119 31.5q-55 42.5 -55 119.5q0 60 35 90.5t101 37.5q-109 23 -109 114q0 64 48.5 102.5t125.5 38.5q107 0 167.5 -73t60.5 -200q0 -128 -58.5 -200t-170.5 -72q-90 0 -145 42.5zM432 261q0 111 -43 168t-124 57q-54 0 -84.5 -25t-30.5 -68q0 -46 35.5 -70.5t97.5 -24.5
h25l4 -47h-37q-72 0 -111 -23t-39 -76q0 -59 37.5 -86.5t103.5 -27.5q166 0 166 223z" />
    <glyph glyph-name="uni025C" unicode="&#x25c;" horiz-adv-x="482" 
d="M342.5 497q48.5 -37 48.5 -101q0 -94 -109 -117q67 -7 101.5 -37.5t34.5 -90.5q0 -78 -55.5 -120t-144.5 -42q-62 0 -109 18t-86 50l32 36q35 -27 72.5 -41t88.5 -14q64 0 102.5 27t38.5 87q0 53 -40 76t-114 23h-62l4 47h50q65 0 101 25t36 72q0 44 -31.5 67.5
t-84.5 23.5q-45 0 -77.5 -10.5t-69.5 -33.5l-28 36q40 28 83 42t97 14q73 0 121.5 -37z" />
    <glyph glyph-name="uni025E" unicode="&#x25e;" horiz-adv-x="557" 
d="M123 61q-59 72 -59 200q0 127 60.5 200t167.5 73q77 0 125.5 -38.5t48.5 -102.5q0 -91 -109 -114q67 -7 101.5 -37.5t34.5 -90.5q0 -77 -54.5 -119.5t-145.5 -42.5q-111 0 -170 72zM395.5 65.5q37.5 27.5 37.5 86.5q0 53 -39.5 76t-110.5 23h-38l5 47h24q62 0 97.5 24.5
t35.5 70.5q0 43 -30.5 68t-84.5 25q-81 0 -124 -57t-43 -168q0 -223 167 -223q66 0 103.5 27.5z" />
    <glyph glyph-name="uni025D" unicode="&#x25d;" horiz-adv-x="662" 
d="M687 357q-44 -34 -103 -34q-57 0 -89 32t-32 92v27l-77 -39q5 -15 5 -39q0 -94 -109 -117q67 -7 101.5 -37.5t34.5 -90.5q0 -78 -55.5 -120t-144.5 -42q-62 0 -109 18t-86 50l32 36q35 -27 72.5 -41t88.5 -14q64 0 102.5 27t38.5 87q0 53 -40 76t-114 23h-62l4 47h50
q65 0 101 25t36 72q0 44 -31.5 67.5t-84.5 23.5q-45 0 -77.5 -10.5t-69.5 -33.5l-28 36q40 28 83 42t97 14q46 0 84 -15.5t60 -43.5l98 48h55v-70q0 -82 69 -82q23 0 40 6t36 18z" />
    <glyph glyph-name="uni0258" unicode="&#x258;" horiz-adv-x="538" 
d="M421.5 462q52.5 -72 52.5 -205q0 -126 -59 -197t-162 -71q-50 0 -91.5 16t-80.5 48l28 37q36 -27 68.5 -39.5t76.5 -12.5q70 0 112 49t47 152h-350q-2 20 -2 42q0 117 54 185t152 68q102 0 154.5 -72zM119 284h294q-4 107 -41 154.5t-106 47.5q-72 0 -109.5 -50.5
t-37.5 -136.5v-15z" />
    <glyph glyph-name="uni0283" unicode="&#x283;" horiz-adv-x="281" 
d="M339 709l-25 -37q-19 11 -35.5 17t-39.5 6q-69 0 -69 -83v-683q0 -66 -34 -100t-92 -34q-57 0 -101 34l24 37q19 -11 35.5 -17t39.5 -6q70 0 70 83v683q0 66 33 100t91 34q57 0 103 -34z" />
    <glyph glyph-name="uni0286" unicode="&#x286;" horiz-adv-x="292" 
d="M180 612v-89l1 -540q52 -14 105 -38l-16 -35q-53 23 -90 32q-7 -73 -44.5 -110t-104.5 -37q-53 0 -84.5 27t-31.5 70q0 50 38 79t101 29q38 0 68 -5v614q0 66 33.5 100t91.5 34q57 0 103 -34l-25 -37q-19 12 -35.5 17.5t-40.5 5.5q-69 0 -69 -83zM98 -134.5
q22 27.5 25 87.5q-33 6 -68 6q-45 0 -68 -17t-23 -48q0 -26 17.5 -41t49.5 -15q45 0 67 27.5z" />
    <glyph glyph-name="uni01AA" unicode="&#x1aa;" horiz-adv-x="290" 
d="M348 -171q-46 -34 -102 -34q-57 0 -91.5 34t-34.5 100v583q-27 -12 -59 -12q-50 0 -82.5 32.5t-32.5 87.5t33 89t84 34q53 0 84 -33.5t31 -89.5v-694q0 -83 70 -83q23 0 39.5 6t35.5 17zM120 558v65q0 35 -14.5 54t-41.5 19q-28 0 -44 -20t-16 -55q0 -37 17 -55.5
t47 -18.5q28 0 52 11z" />
    <glyph glyph-name="uni0285" unicode="&#x285;" horiz-adv-x="402" 
d="M153.5 466q-18.5 20 -50.5 20q-23 0 -40 -6t-36 -18l-24 38q44 34 102 34t91.5 -34.5t33.5 -100.5v-204h-58v208q0 43 -18.5 63zM399 23q-44 -34 -102 -34q-57 0 -91 34.5t-34 100.5v71h58v-74q0 -44 18.5 -64t50.5 -20q23 0 40.5 6t34.5 17z" />
    <glyph glyph-name="uni0247" unicode="&#x247;" horiz-adv-x="538" 
d="M277 239l-52 -189q29 -12 64 -12q41 0 72.5 12.5t68.5 39.5l27 -37q-39 -32 -80 -48t-91 -16q-39 0 -75 11l-19 -70l-31 8l20 75q-56 29 -86.5 92t-30.5 152q0 83 25.5 145.5t73 97t110.5 34.5q25 0 50 -5l17 63l31 -9l-17 -63q61 -24 92 -86t31 -153q0 -22 -2 -42h-198z
M170.5 436q-40.5 -50 -45.5 -152h130l55 198q-15 4 -35 4q-64 0 -104.5 -50zM400 408.5q-20 44.5 -59 63.5l-52 -188h131v15q0 65 -20 109.5zM243 239h-117q6 -122 70 -172z" />
    <glyph glyph-name="uni1EBD" unicode="&#x1ebd;" horiz-adv-x="538" 
d="M475 239h-349q5 -102 48.5 -151.5t114.5 -49.5q41 0 72.5 12.5t68.5 39.5l27 -37q-39 -32 -80 -48t-91 -16q-104 0 -163 71t-59 197q0 83 25.5 145.5t73 97t110.5 34.5q100 0 152 -67.5t52 -185.5q0 -22 -2 -42zM420 299q0 88 -36.5 137.5t-108.5 49.5q-64 0 -104.5 -50
t-45.5 -152h295v15zM302 672.5q-15 6.5 -37 19.5q-16 10 -26.5 15t-20.5 5q-17 0 -29.5 -9.5t-26.5 -30.5l-36 18q37 68 92 68q17 0 31.5 -6t32.5 -18q18 -11 29 -16t24 -5q16 0 28.5 10t27.5 33l36 -18q-35 -72 -92 -72q-18 0 -33 6.5z" />
    <glyph glyph-name="uni01DD" unicode="&#x1dd;" horiz-adv-x="545" 
d="M427 464.5q54 -69.5 54 -200.5q0 -132 -57.5 -203.5t-155.5 -71.5q-95 0 -151 69t-56 188q0 15 2 39h356q-3 101 -42 150.5t-108 49.5q-41 0 -75 -12t-69 -38l-28 39q76 60 173 60q103 0 157 -69.5zM420 239h-301v-6q0 -93 39.5 -144.5t109.5 -51.5q146 0 152 202z" />
    <glyph glyph-name="uni0292" unicode="&#x292;" horiz-adv-x="461" 
d="M371 150q58 -50 58 -146q0 -62 -27 -109t-77 -73.5t-117 -26.5q-64 0 -111 21.5t-86 64.5l35 32q36 -37 74 -53t87 -16q78 0 119 42.5t41 118.5q0 79 -43 114t-137 35h-64v46l213 273h-302v50h370v-45l-220 -278h12q117 0 175 -50z" />
    <glyph glyph-name="uni01EF" unicode="&#x1ef;" horiz-adv-x="461" 
d="M371 150q58 -50 58 -146q0 -62 -27 -109t-77 -73.5t-117 -26.5q-64 0 -111 21.5t-86 64.5l35 32q36 -37 74 -53t87 -16q78 0 119 42.5t41 118.5q0 79 -43 114t-137 35h-64v46l213 273h-302v50h370v-45l-220 -278h12q117 0 175 -50zM366 739l-129 -106h-36l-130 106l26 30
l122 -84l121 84z" />
    <glyph glyph-name="uni0293" unicode="&#x293;" horiz-adv-x="461" 
d="M392 -115q-37 -51 -107 -73l25 -56l-43 -17l-28 61q-37 -5 -71 -5q-92 0 -139 31.5t-47 89.5q0 46 30.5 76t80.5 30q56 0 94.5 -36t77.5 -129q102 33 102 150q0 77 -43 112t-137 35h-64v46l213 273h-302v50h370v-45l-220 -278h13q116 0 174 -49.5t58 -143.5
q0 -71 -37 -122zM69 -139.5q34 -16.5 101 -16.5q25 0 48 3q-33 75 -59.5 102.5t-62.5 27.5q-29 0 -45 -16t-16 -44q0 -40 34 -56.5z" />
    <glyph glyph-name="uni01B9" unicode="&#x1b9;" horiz-adv-x="461" 
d="M450 -119q-38 -43 -87 -64.5t-114 -21.5t-114 25.5t-75.5 71t-26.5 103.5q0 95 59.5 150t174.5 55h10l-220 278v45h370v-50h-301l212 -273v-46h-63q-93 0 -137 -40t-44 -119q0 -69 40.5 -110t114.5 -41q52 0 91.5 16t75.5 52z" />
    <glyph glyph-name="uni01BA" unicode="&#x1ba;" horiz-adv-x="455" 
d="M61 -151q-29 30 -29 70q0 48 41.5 74.5t129.5 37.5q59 7 93 18.5t50.5 33t16.5 58.5q0 42 -26.5 62.5t-75.5 20.5h-147v46l207 203h-291v50h365v-45l-216 -208h86q75 0 117.5 -33.5t42.5 -95.5q0 -73 -49.5 -109t-146.5 -48q-76 -10 -106.5 -24.5t-30.5 -44.5
q0 -24 18 -42.5t59 -39.5l-21 -39q-58 25 -87 55z" />
    <glyph glyph-name="f" unicode="f" horiz-adv-x="321" 
d="M192.5 674q-22.5 -21 -22.5 -67v-84h138l-8 -47h-130v-476h-58v476h-91v47h91v86q0 62 38.5 98t106.5 36q61 0 122 -28l-20 -43q-52 23 -99 23q-45 0 -67.5 -21z" />
    <glyph glyph-name="uni1E1F" unicode="&#x1e1f;" horiz-adv-x="321" 
d="M192.5 674q-22.5 -21 -22.5 -67v-84h138l-8 -47h-130v-476h-58v476h-91v47h91v86q0 62 38.5 98t106.5 36q61 0 122 -28l-20 -43q-52 23 -99 23q-45 0 -67.5 -21zM286 918q12 -12 12 -30t-12 -30t-32 -12q-19 0 -31 12t-12 30t12 30t31 12q20 0 32 -12z" />
    <glyph glyph-name="uni02A9" unicode="&#x2a9;" horiz-adv-x="867" 
d="M767 0h-1v-71q0 -66 -34 -100t-91 -34q-58 0 -102 34l24 37q19 -12 35.5 -17.5t40.5 -5.5q69 0 69 83v75h1v365q0 63 -25 92t-74 29q-50 0 -88.5 -27.5t-73.5 -80.5v-379h-58v476h-220v-476h-58v476h-91v47h91v86q0 62 38.5 98t106.5 36q61 0 122 -28l-20 -43
q-52 23 -99 23q-45 0 -67.5 -21t-22.5 -67v-84h238h32l6 -89q32 47 76 73.5t99 26.5q71 0 108.5 -42t37.5 -118v-374z" />
    <glyph glyph-name="g" unicode="g" horiz-adv-x="503" 
d="M495 512q-48 -13 -145 -15q89 -42 89 -142q0 -77 -51 -124.5t-138 -47.5q-39 0 -68 10q-19 -11 -29.5 -26.5t-10.5 -33.5q0 -54 83 -54h85q77 0 122.5 -37.5t45.5 -96.5q0 -72 -57 -111t-170 -39q-117 0 -167.5 35.5t-50.5 114.5h54q1 -38 16 -60t50 -32t98 -10
q88 0 128 25.5t40 73.5q0 42 -31 64.5t-87 22.5h-85q-62 0 -95.5 26t-33.5 66q0 26 15 49t42 40q-45 23 -66.5 59t-21.5 88q0 79 53 128t139 49q95 -1 138.5 7t90.5 27zM149.5 453q-33.5 -36 -33.5 -96q0 -62 35.5 -97t96.5 -35q64 0 98 34.5t34 96.5q0 63 -33.5 98
t-98.5 35t-98.5 -36z" />
    <glyph glyph-name="uni01F5" unicode="&#x1f5;" horiz-adv-x="503" 
d="M495 512q-48 -13 -145 -15q89 -42 89 -142q0 -77 -51 -124.5t-138 -47.5q-39 0 -68 10q-19 -11 -29.5 -26.5t-10.5 -33.5q0 -54 83 -54h85q77 0 122.5 -37.5t45.5 -96.5q0 -72 -57 -111t-170 -39q-117 0 -167.5 35.5t-50.5 114.5h54q1 -38 16 -60t50 -32t98 -10
q88 0 128 25.5t40 73.5q0 42 -31 64.5t-87 22.5h-85q-62 0 -95.5 26t-33.5 66q0 26 15 49t42 40q-45 23 -66.5 59t-21.5 88q0 79 53 128t139 49q95 -1 138.5 7t90.5 27zM149.5 453q-33.5 -36 -33.5 -96q0 -62 35.5 -97t96.5 -35q64 0 98 34.5t34 96.5q0 63 -33.5 98
t-98.5 35t-98.5 -36zM353 730l-195 -85l-19 34l188 103z" />
    <glyph glyph-name="uni0263" unicode="&#x263;" horiz-adv-x="468" 
d="M267 54q31 -59 45.5 -97.5t14.5 -74.5q0 -40 -24 -63.5t-68 -23.5q-43 0 -67.5 23.5t-24.5 63.5q0 33 14.5 73t45.5 98l-188 470h63l157 -429l156 429h61zM264 -60.5q-9 27.5 -29 72.5q-21 -47 -30 -73.5t-9 -53.5q0 -44 39 -44q19 0 28.5 11.5t9.5 32.5q0 27 -9 54.5z
" />
    <glyph glyph-name="gbreve" unicode="&#x11f;" horiz-adv-x="503" 
d="M495 512q-48 -13 -145 -15q89 -42 89 -142q0 -77 -51 -124.5t-138 -47.5q-39 0 -68 10q-19 -11 -29.5 -26.5t-10.5 -33.5q0 -54 83 -54h85q77 0 122.5 -37.5t45.5 -96.5q0 -72 -57 -111t-170 -39q-117 0 -167.5 35.5t-50.5 114.5h54q1 -38 16 -60t50 -32t98 -10
q88 0 128 25.5t40 73.5q0 42 -31 64.5t-87 22.5h-85q-62 0 -95.5 26t-33.5 66q0 26 15 49t42 40q-45 23 -66.5 59t-21.5 88q0 79 53 128t139 49q95 -1 138.5 7t90.5 27zM149.5 453q-33.5 -36 -33.5 -96q0 -62 35.5 -97t96.5 -35q64 0 98 34.5t34 96.5q0 63 -33.5 98
t-98.5 35t-98.5 -36zM163.5 683q-35.5 30 -42.5 80l40 9q20 -72 90 -72q71 0 91 72l40 -9q-7 -50 -43 -80t-88 -30t-87.5 30z" />
    <glyph glyph-name="gcaron" unicode="&#x1e7;" horiz-adv-x="503" 
d="M495 512q-48 -13 -145 -15q89 -42 89 -142q0 -77 -51 -124.5t-138 -47.5q-39 0 -68 10q-19 -11 -29.5 -26.5t-10.5 -33.5q0 -54 83 -54h85q77 0 122.5 -37.5t45.5 -96.5q0 -72 -57 -111t-170 -39q-117 0 -167.5 35.5t-50.5 114.5h54q1 -38 16 -60t50 -32t98 -10
q88 0 128 25.5t40 73.5q0 42 -31 64.5t-87 22.5h-85q-62 0 -95.5 26t-33.5 66q0 26 15 49t42 40q-45 23 -66.5 59t-21.5 88q0 79 53 128t139 49q95 -1 138.5 7t90.5 27zM149.5 453q-33.5 -36 -33.5 -96q0 -62 35.5 -97t96.5 -35q64 0 98 34.5t34 96.5q0 63 -33.5 98
t-98.5 35t-98.5 -36zM399 739l-129 -106h-36l-130 106l26 30l122 -84l121 84z" />
    <glyph glyph-name="gcircumflex" unicode="&#x11d;" horiz-adv-x="503" 
d="M495 512q-48 -13 -145 -15q89 -42 89 -142q0 -77 -51 -124.5t-138 -47.5q-39 0 -68 10q-19 -11 -29.5 -26.5t-10.5 -33.5q0 -54 83 -54h85q77 0 122.5 -37.5t45.5 -96.5q0 -72 -57 -111t-170 -39q-117 0 -167.5 35.5t-50.5 114.5h54q1 -38 16 -60t50 -32t98 -10
q88 0 128 25.5t40 73.5q0 42 -31 64.5t-87 22.5h-85q-62 0 -95.5 26t-33.5 66q0 26 15 49t42 40q-45 23 -66.5 59t-21.5 88q0 79 53 128t139 49q95 -1 138.5 7t90.5 27zM149.5 453q-33.5 -36 -33.5 -96q0 -62 35.5 -97t96.5 -35q64 0 98 34.5t34 96.5q0 63 -33.5 98
t-98.5 35t-98.5 -36zM104 674l129 105h36l130 -105l-26 -31l-122 85l-121 -85z" />
    <glyph glyph-name="gcommaaccent" unicode="&#x123;" horiz-adv-x="503" 
d="M495 512q-48 -13 -145 -15q89 -42 89 -142q0 -77 -51 -124.5t-138 -47.5q-39 0 -68 10q-19 -11 -29.5 -26.5t-10.5 -33.5q0 -54 83 -54h85q77 0 122.5 -37.5t45.5 -96.5q0 -72 -57 -111t-170 -39q-117 0 -167.5 35.5t-50.5 114.5h54q1 -38 16 -60t50 -32t98 -10
q88 0 128 25.5t40 73.5q0 42 -31 64.5t-87 22.5h-85q-62 0 -95.5 26t-33.5 66q0 26 15 49t42 40q-45 23 -66.5 59t-21.5 88q0 79 53 128t139 49q95 -1 138.5 7t90.5 27zM149.5 453q-33.5 -36 -33.5 -96q0 -62 35.5 -97t96.5 -35q64 0 98 34.5t34 96.5q0 63 -33.5 98
t-98.5 35t-98.5 -36zM220.5 600.5q-12.5 12.5 -12.5 30.5q0 12 4.5 25t18.5 41l40 86h35l-32 -115q22 -13 22 -37q0 -18 -12.5 -30.5t-31.5 -12.5t-31.5 12.5z" />
    <glyph glyph-name="gdotaccent" unicode="&#x121;" horiz-adv-x="503" 
d="M495 512q-48 -13 -145 -15q89 -42 89 -142q0 -77 -51 -124.5t-138 -47.5q-39 0 -68 10q-19 -11 -29.5 -26.5t-10.5 -33.5q0 -54 83 -54h85q77 0 122.5 -37.5t45.5 -96.5q0 -72 -57 -111t-170 -39q-117 0 -167.5 35.5t-50.5 114.5h54q1 -38 16 -60t50 -32t98 -10
q88 0 128 25.5t40 73.5q0 42 -31 64.5t-87 22.5h-85q-62 0 -95.5 26t-33.5 66q0 26 15 49t42 40q-45 23 -66.5 59t-21.5 88q0 79 53 128t139 49q95 -1 138.5 7t90.5 27zM149.5 453q-33.5 -36 -33.5 -96q0 -62 35.5 -97t96.5 -35q64 0 98 34.5t34 96.5q0 63 -33.5 98
t-98.5 35t-98.5 -36zM283 741q12 -12 12 -30t-12 -30t-32 -12q-19 0 -31 12t-12 30t12 30t31 12q20 0 32 -12z" />
    <glyph glyph-name="uni0260" unicode="&#x260;" horiz-adv-x="585" 
d="M648 709l-24 -37q-18 11 -35.5 17t-40.5 6q-69 0 -69 -83v-614q0 -100 -48 -151.5t-152 -51.5q-87 0 -150 38l21 40q58 -30 127 -30q79 0 111.5 36.5t32.5 114.5v104q-24 -41 -63 -65t-93 -24q-60 0 -104.5 32.5t-68 91t-23.5 136.5q0 76 25 136t71 94.5t109 34.5
q89 0 147 -71v146q0 66 33.5 100t91.5 34t102 -34zM358.5 81.5q34.5 24.5 62.5 72.5v253q-56 79 -137 79q-70 0 -112 -57.5t-41 -158.5q0 -101 38 -157t105 -56q50 0 84.5 24.5z" />
    <glyph glyph-name="uni01BE" unicode="&#x1be;" horiz-adv-x="501" 
d="M385 356q52 -50 52 -148q0 -62 -26 -111t-74 -76.5t-113 -27.5q-58 0 -103 20t-88 61l33 34q37 -33 74 -49.5t83 -16.5q74 0 113.5 45t39.5 122t-38.5 116t-104.5 55l-68 16v162h-72v46h72v132l58 7v-139h115v-46h-115v-129l31 -6q79 -17 131 -67z" />
    <glyph glyph-name="uni0294" unicode="&#x294;" horiz-adv-x="433" 
d="M133 340l63 17q66 18 104 55.5t38 114.5t-39.5 122t-113.5 45q-46 0 -83 -16.5t-73 -49.5l-34 34q44 41 89 61t104 20q65 0 113 -27t73.5 -76t25.5 -112q0 -98 -51 -145t-132 -69l-26 -7v-307h-58v340z" />
    <glyph glyph-name="uni0296" unicode="&#x296;" horiz-adv-x="501" 
d="M223 743v-314l31 -6q79 -17 131 -67t52 -148q0 -62 -26 -111t-74 -76.5t-113 -27.5q-58 0 -103 20t-88 61l33 34q37 -33 74 -49.5t83 -16.5q74 0 113.5 45t39.5 122t-38.5 116t-104.5 55l-68 16v340z" />
    <glyph glyph-name="uni0295" unicode="&#x295;" horiz-adv-x="434" 
d="M243 0v307l-26 7q-82 22 -133 69t-51 145q0 63 27 111.5t76.5 76t114.5 27.5q56 0 100 -20t87 -61l-33 -34q-37 33 -73 49.5t-79 16.5q-75 0 -116.5 -45t-41.5 -122t38.5 -114.5t104.5 -55.5l63 -17v-340h-58z" />
    <glyph glyph-name="uni0242" unicode="&#x242;" horiz-adv-x="428" 
d="M128 185l72 19q121 31 121 145q0 60 -36.5 97t-98.5 37q-45 0 -78 -14.5t-67 -41.5l-33 36q38 35 80.5 53t99.5 18q58 0 102 -24t68 -66t24 -94q0 -82 -45.5 -126.5t-114.5 -61.5l-36 -9v-153h-58v185z" />
    <glyph glyph-name="uni02A1" unicode="&#x2a1;" horiz-adv-x="433" 
d="M191 307v-97h114v-47h-114v-163h-58v163h-68v47h68v130l63 17q66 18 104 55.5t38 114.5t-39.5 122t-113.5 45q-46 0 -83 -16.5t-73 -49.5l-34 34q44 41 89 61t104 20q65 0 113 -27t73.5 -76t25.5 -112q0 -98 -51 -145t-132 -69z" />
    <glyph glyph-name="uni02A2" unicode="&#x2a2;" horiz-adv-x="434" 
d="M136.5 649q-41.5 -45 -41.5 -122t38.5 -114.5t104.5 -55.5l63 -17v-130h71v-47h-71v-163h-58v163h-112v47h112v97l-26 7q-82 22 -133 69t-51 145q0 63 27 111.5t76.5 76t114.5 27.5q56 0 100 -20t87 -61l-33 -34q-37 33 -73 49.5t-79 16.5q-75 0 -116.5 -45z" />
    <glyph glyph-name="uni0261" unicode="&#x261;" horiz-adv-x="585" 
d="M479 523v-525q0 -100 -48 -151.5t-152 -51.5q-87 0 -150 38l21 40q58 -30 127 -30q79 0 111.5 36.5t32.5 114.5v104q-24 -41 -63 -65t-93 -24q-60 0 -104.5 32.5t-68 91t-23.5 136.5q0 76 25 136t71 94.5t109 34.5q51 0 87 -20.5t64 -54.5l4 64h50zM358.5 81.5
q34.5 24.5 62.5 72.5v253q-56 79 -137 79q-70 0 -112 -57.5t-41 -158.5q0 -101 38 -157t105 -56q50 0 84.5 24.5z" />
    <glyph glyph-name="uni01E5" unicode="&#x1e5;" horiz-adv-x="503" 
d="M532 -79h-56q-9 -61 -65.5 -93.5t-159.5 -32.5q-117 0 -167.5 35.5t-50.5 114.5h54q1 -38 16 -60t50 -32t98 -10q154 0 170 78h-153v46h152q-9 31 -40 47.5t-79 16.5h-85q-63 0 -96 25t-33 65q0 26 15 49t42 40q-45 23 -66.5 59t-21.5 88q0 79 53 128t139 49
q95 -1 138.5 7t90.5 27l18 -56q-48 -13 -145 -15q89 -42 89 -142q0 -77 -51 -124.5t-138 -47.5q-39 0 -68 10q-19 -11 -29.5 -26.5t-10.5 -33.5q0 -54 83 -54h85q69 0 113.5 -30.5t52.5 -81.5h56v-46zM151.5 260q35.5 -35 96.5 -35q64 0 98 34.5t34 96.5q0 63 -33.5 98
t-98.5 35t-98.5 -36t-33.5 -96q0 -62 35.5 -97z" />
    <glyph glyph-name="h" unicode="h" horiz-adv-x="584" 
d="M445 491.5q38 -42.5 38 -117.5v-374h-58v366q0 121 -99 121q-50 0 -88.5 -27.5t-73.5 -80.5v-379h-58v736l58 7v-307q70 98 173 98q70 0 108 -42.5z" />
    <glyph glyph-name="hbar" unicode="&#x127;" horiz-adv-x="589" 
d="M450 491.5q38 -42.5 38 -117.5v-374h-58v366q0 62 -25 91.5t-74 29.5t-88 -28t-74 -80v-379h-58v616h-75v47h75v73l58 7v-80h167v-47h-167v-180q71 98 173 98q70 0 108 -42.5z" />
    <glyph glyph-name="uni021F" unicode="&#x21f;" horiz-adv-x="584" 
d="M445 491.5q38 -42.5 38 -117.5v-374h-58v366q0 121 -99 121q-50 0 -88.5 -27.5t-73.5 -80.5v-379h-58v736l58 7v-307q70 98 173 98q70 0 108 -42.5zM441 908l-129 -101h-36l-130 101l26 31l122 -80l121 80z" />
    <glyph glyph-name="hcircumflex" unicode="&#x125;" horiz-adv-x="584" 
d="M445 491.5q38 -42.5 38 -117.5v-374h-58v366q0 121 -99 121q-50 0 -88.5 -27.5t-73.5 -80.5v-379h-58v736l58 7v-307q70 98 173 98q70 0 108 -42.5zM294 893l-122 -80l-26 30l130 102h36l129 -102l-26 -30z" />
    <glyph glyph-name="uni1E25" unicode="&#x1e25;" horiz-adv-x="584" 
d="M445 491.5q38 -42.5 38 -117.5v-374h-58v366q0 121 -99 121q-50 0 -88.5 -27.5t-73.5 -80.5v-379h-58v736l58 7v-307q70 98 173 98q70 0 108 -42.5zM263 -158q-12 12 -12 30t12 30t32 12q19 0 31 -12t12 -30t-12 -30t-31 -12q-20 0 -32 12z" />
    <glyph glyph-name="uni0267" unicode="&#x267;" horiz-adv-x="584" 
d="M449 -171q-34 -34 -91 -34q-58 0 -102 34l24 37q19 -11 35.5 -17t39.5 -6q70 0 70 83v440q0 121 -99 121q-50 0 -88.5 -27.5t-73.5 -80.5v-379h-58v609q0 62 39 98t106 36q63 0 122 -28l-20 -43q-52 23 -98 23t-68.5 -21t-22.5 -67v-171q70 98 173 98q70 0 108 -42.5
t38 -117.5v-445q0 -66 -34 -100z" />
    <glyph glyph-name="uni0266" unicode="&#x266;" horiz-adv-x="584" 
d="M445 491.5q38 -42.5 38 -117.5v-374h-58v366q0 121 -99 121q-50 0 -88.5 -27.5t-73.5 -80.5v-379h-58v609q0 62 39 98t106 36q63 0 122 -28l-20 -43q-52 23 -98 23t-68.5 -21t-22.5 -67v-171q70 98 173 98q70 0 108 -42.5z" />
    <glyph glyph-name="uni0265" unicode="&#x265;" horiz-adv-x="584" 
d="M478 523v-728l-58 8v284q-71 -98 -173 -98q-70 0 -108 42.5t-38 118.5v373h58v-365q0 -122 99 -122q49 0 88 28t74 80v379h58z" />
    <glyph glyph-name="uni0195" unicode="&#x195;" horiz-adv-x="888" 
d="M807 260q0 -91 -29.5 -152t-77.5 -90t-106 -29q-74 0 -121.5 44t-47.5 126v207q0 121 -99 121q-50 0 -88.5 -27.5t-73.5 -80.5v-379h-58v736l58 7v-307q70 98 173 98q70 0 108 -42.5t38 -117.5v-211q0 -63 30.5 -94t82.5 -31q63 0 107.5 53.5t44.5 172.5q0 110 -26 259
h59q26 -150 26 -263z" />
    <glyph glyph-name="i" unicode="i" horiz-adv-x="270" 
d="M164 0h-58v523h58v-523zM166 741q12 -12 12 -30t-12 -30t-32 -12q-19 0 -31 12t-12 30t12 30t31 12q20 0 32 -12z" />
    <glyph glyph-name="dotlessi" unicode="&#x131;" horiz-adv-x="270" 
d="M164 0h-58v523h58v-523z" />
    <glyph glyph-name="iacute" unicode="&#xed;" horiz-adv-x="270" 
d="M164 0h-58v523h58v-523zM236 730l-195 -85l-19 34l188 103z" />
    <glyph glyph-name="ibreve" unicode="&#x12d;" horiz-adv-x="270" 
d="M164 0h-58v523h58v-523zM46.5 683q-35.5 30 -42.5 80l40 9q20 -72 90 -72q71 0 91 72l40 -9q-7 -50 -43 -80t-88 -30t-87.5 30z" />
    <glyph glyph-name="uni01D0" unicode="&#x1d0;" horiz-adv-x="270" 
d="M164 0h-58v523h58v-523zM282 739l-129 -106h-36l-130 106l26 30l122 -84l121 84z" />
    <glyph glyph-name="icircumflex" unicode="&#xee;" horiz-adv-x="270" 
d="M164 0h-58v523h58v-523zM-13 674l129 105h36l130 -105l-26 -31l-122 85l-121 -85z" />
    <glyph glyph-name="uni0209" unicode="&#x209;" horiz-adv-x="270" 
d="M106 660l-38 -18l-93 142l52 27zM227 664l-38 -17l-84 136l52 28zM164 0h-58v523h58v-523z" />
    <glyph glyph-name="idieresis" unicode="&#xef;" horiz-adv-x="270" 
d="M164 0h-58v523h58v-523zM68.5 730.5q11.5 -11.5 11.5 -28.5t-11.5 -28t-28.5 -11t-28.5 11t-11.5 28t11.5 28.5t28.5 11.5t28.5 -11.5zM257.5 730.5q11.5 -11.5 11.5 -28.5t-11.5 -28t-28.5 -11t-28.5 11t-11.5 28t11.5 28.5t28.5 11.5t28.5 -11.5z" />
    <glyph glyph-name="uni1E2F" unicode="&#x1e2f;" horiz-adv-x="270" 
d="M252 824l-121 -120l-26 24l108 132zM68.5 700.5q11.5 -11.5 11.5 -28.5t-11.5 -28t-28.5 -11t-28.5 11t-11.5 28t11.5 28.5t28.5 11.5t28.5 -11.5zM257.5 700.5q11.5 -11.5 11.5 -28.5t-11.5 -28t-28.5 -11t-28.5 11t-11.5 28t11.5 28.5t28.5 11.5t28.5 -11.5zM164 0h-58
v523h58v-523z" />
    <glyph glyph-name="i.loclTRK" horiz-adv-x="270" 
d="M164 0h-58v523h58v-523zM166 741q12 -12 12 -30t-12 -30t-32 -12q-19 0 -31 12t-12 30t12 30t31 12q20 0 32 -12z" />
    <glyph glyph-name="uni1ECB" unicode="&#x1ecb;" horiz-adv-x="270" 
d="M164 0h-58v523h58v-523zM166 741q12 -12 12 -30t-12 -30t-32 -12q-19 0 -31 12t-12 30t12 30t31 12q20 0 32 -12zM103 -158q-12 12 -12 30t12 30t32 12q19 0 31 -12t12 -30t-12 -30t-31 -12q-20 0 -32 12z" />
    <glyph glyph-name="igrave" unicode="&#xec;" horiz-adv-x="270" 
d="M164 0h-58v523h58v-523zM246 679l-18 -34l-196 85l26 52z" />
    <glyph glyph-name="uni1EC9" unicode="&#x1ec9;" horiz-adv-x="270" 
d="M164 0h-58v523h58v-523zM108 700q35 2 52.5 12t17.5 34q0 20 -12.5 30.5t-34.5 10.5q-31 0 -58 -15l-16 36q37 22 81 22q43 0 68 -22t25 -58q0 -34 -19.5 -53t-55.5 -24v-57h-48v84z" />
    <glyph glyph-name="uni020B" unicode="&#x20b;" horiz-adv-x="270" 
d="M164 0h-58v523h58v-523zM222 712q36 -30 43 -80l-40 -9q-20 72 -91 72q-70 0 -90 -72l-40 9q7 50 42.5 80t87.5 30t88 -30z" />
    <glyph glyph-name="ij" unicode="&#x133;" horiz-adv-x="540" 
d="M164 0h-58v523h58v-523zM166 741q12 -12 12 -30t-12 -30t-32 -12q-19 0 -31 12t-12 30t12 30t31 12q20 0 32 -12zM434 19q0 -68 -15 -108.5t-44 -65t-82 -48.5l-17 42q38 19 58.5 37.5t31 51t10.5 89.5v506h58v-504zM436 741q12 -12 12 -30t-12 -30t-32 -12q-19 0 -31 12
t-12 30t12 30t31 12q20 0 32 -12z" />
    <glyph glyph-name="imacron" unicode="&#x12b;" horiz-adv-x="270" 
d="M164 0h-58v523h58v-523zM14 676v47h241v-47h-241z" />
    <glyph glyph-name="iogonek" unicode="&#x12f;" horiz-adv-x="270" 
d="M166 741q12 -12 12 -30t-12 -30t-32 -12q-19 0 -31 12t-12 30t12 30t31 12q20 0 32 -12zM69.5 -56.5q-27.5 -26.5 -27.5 -61.5q0 -24 15 -38t47 -14q27 0 59 7l-6 -48q-35 -7 -58 -7q-53 0 -82 25.5t-29 66.5q0 42 29 74t89 59v516h58v-523q-67 -30 -94.5 -56.5z" />
    <glyph glyph-name="uni0269" unicode="&#x269;" horiz-adv-x="284" 
d="M125.5 14q-24.5 25 -24.5 74v435h58v-433q0 -51 42 -51q21 0 36 7l16 -43q-28 -14 -60 -14q-43 0 -67.5 25z" />
    <glyph glyph-name="uni0268" unicode="&#x268;" horiz-adv-x="300" 
d="M117 681q-12 12 -12 30t12 30t31 12q20 0 32 -12t12 -30t-12 -30t-32 -12q-19 0 -31 12zM282 258h-104v-258h-58v258h-102v49h102v216h58v-216h104v-49z" />
    <glyph glyph-name="itilde" unicode="&#x129;" horiz-adv-x="270" 
d="M164 0h-58v523h58v-523zM160 672.5q-15 6.5 -37 19.5q-16 10 -26.5 15t-20.5 5q-17 0 -29.5 -9.5t-26.5 -30.5l-36 18q37 68 92 68q17 0 31.5 -6t32.5 -18q18 -11 29 -16t24 -5q16 0 28.5 10t27.5 33l36 -18q-35 -72 -92 -72q-18 0 -33 6.5z" />
    <glyph glyph-name="j" unicode="j" horiz-adv-x="270" 
d="M164 19q0 -68 -15 -108.5t-44 -65t-82 -48.5l-17 42q38 19 58.5 37.5t31 51t10.5 89.5v506h58v-504zM166 741q12 -12 12 -30t-12 -30t-32 -12q-19 0 -31 12t-12 30t12 30t31 12q20 0 32 -12z" />
    <glyph glyph-name="uni0237" unicode="&#x237;" horiz-adv-x="270" 
d="M164 19q0 -68 -15 -108.5t-44 -65t-82 -48.5l-17 42q38 19 58.5 37.5t31 51t10.5 89.5v506h58v-504z" />
    <glyph glyph-name="uni01F0" unicode="&#x1f0;" horiz-adv-x="270" 
d="M164 19q0 -68 -15 -108.5t-44 -65t-82 -48.5l-17 42q38 19 58.5 37.5t31 51t10.5 89.5v506h58v-504zM282 739l-129 -106h-36l-130 106l26 30l122 -84l121 84z" />
    <glyph glyph-name="jcircumflex" unicode="&#x135;" horiz-adv-x="270" 
d="M164 19q0 -68 -15 -108.5t-44 -65t-82 -48.5l-17 42q38 19 58.5 37.5t31 51t10.5 89.5v506h58v-504zM-13 674l129 105h36l130 -105l-26 -31l-122 85l-121 -85z" />
    <glyph glyph-name="uni029D" unicode="&#x29d;" horiz-adv-x="288" 
d="M120 681q-12 12 -12 30t12 30t31 12q20 0 32 -12t12 -30t-12 -30t-32 -12q-19 0 -31 12zM270 -90q-53 23 -90 32q-7 -73 -44.5 -110t-104.5 -37q-53 0 -84.5 27t-31.5 70q0 50 38 79t101 29q21 0 69 -5v528h58v-540q52 -14 105 -38zM98 -134.5q22 27.5 25 87.5
q-33 6 -68 6q-45 0 -68 -17t-23 -48q0 -26 17.5 -41t49.5 -15q45 0 67 27.5z" />
    <glyph glyph-name="uni025F" unicode="&#x25f;" horiz-adv-x="300" 
d="M282 224h-101v-205q0 -68 -15 -108.5t-44 -65t-82 -48.5l-17 42q38 19 58.5 37.5t31 51t10.5 89.5v207h-105v47h105v252h58v-252h101v-47z" />
    <glyph glyph-name="uni0284" unicode="&#x284;" horiz-adv-x="300" 
d="M284 45v-45h-104q-2 -60 -17.5 -97t-44 -60t-78.5 -46l-17 42q37 18 57 35.5t30.5 47t11.5 78.5h-102v45h103v564q0 66 33 100t91 34q57 0 103 -34l-25 -37q-19 11 -35.5 17t-39.5 6q-69 0 -69 -83v-567h103z" />
    <glyph glyph-name="uni0249" unicode="&#x249;" horiz-adv-x="300" 
d="M282 224h-101v-205q0 -68 -15 -108.5t-44 -65t-82 -48.5l-17 42q38 19 58.5 37.5t31 51t10.5 89.5v207h-105v47h105v252h58v-252h101v-47zM183 741q12 -12 12 -30t-12 -30t-32 -12q-19 0 -31 12t-12 30t12 30t31 12q20 0 32 -12z" />
    <glyph glyph-name="k" unicode="k" horiz-adv-x="488" 
d="M164 0h-58v736l58 7v-743zM237 289l243 -289h-70l-240 286l220 237h67z" />
    <glyph glyph-name="uni01E9" unicode="&#x1e9;" horiz-adv-x="488" 
d="M164 0h-58v736l58 7v-743zM237 289l243 -289h-70l-240 286l220 237h67zM416 908l-129 -101h-36l-130 101l26 31l122 -80l121 80z" />
    <glyph glyph-name="kcommaaccent" unicode="&#x137;" horiz-adv-x="488" 
d="M164 0h-58v736l58 7v-743zM237 289l243 -289h-70l-240 286l220 237h67zM294.5 -97q12.5 -12 12.5 -30q0 -12 -4.5 -24.5t-17.5 -41.5l-40 -86h-36l32 114q-22 14 -22 38q0 18 12.5 30t31.5 12t31.5 -12z" />
    <glyph glyph-name="kgreenlandic" unicode="&#x138;" horiz-adv-x="487" 
d="M164 0h-58v523h58v-523zM236 279l243 -279h-70l-240 276l219 247h68z" />
    <glyph glyph-name="uni0199" unicode="&#x199;" horiz-adv-x="488" 
d="M186.5 674q-22.5 -21 -22.5 -67v-607h-58v609q0 62 39 98t106 36q63 0 122 -28l-20 -43q-52 23 -98 23t-68.5 -21zM480 0h-70l-240 286l220 237h67l-220 -234z" />
    <glyph glyph-name="uni029E" unicode="&#x29e;" horiz-adv-x="488" 
d="M251 234l-243 289h70l240 -286l-219 -237h-68zM324 523h58v-728l-58 8v720z" />
    <glyph glyph-name="l" unicode="l" horiz-adv-x="284" 
d="M125.5 14q-24.5 25 -24.5 74v648l58 7v-653q0 -51 42 -51q21 0 36 7l16 -43q-28 -14 -60 -14q-43 0 -67.5 25z" />
    <glyph glyph-name="lacute" unicode="&#x13a;" horiz-adv-x="284" 
d="M125.5 14q-24.5 25 -24.5 74v648l58 7v-653q0 -51 42 -51q21 0 36 7l16 -43q-28 -14 -60 -14q-43 0 -67.5 25zM237 887l-198 -78l-16 34l187 96z" />
    <glyph glyph-name="uni019B" unicode="&#x19b;" horiz-adv-x="470" 
d="M354.5 255.5q29.5 -89.5 57 -139t68.5 -103.5l-54 -22q-41 57 -68.5 107.5t-56.5 138.5t-57 227l-157 -473l-56 14l175 505h29q-16 73 -37 110l-69 -69l-43 19l84 86q-32 31 -94 44l9 44q76 -15 120 -53l67 71l35 -31l-72 -74q19 -27 32.5 -66.5t26.5 -97.5
q31 -148 60.5 -237.5z" />
    <glyph glyph-name="uni019A" unicode="&#x19a;" horiz-adv-x="300" 
d="M179 348v-258q0 -51 42 -51q22 0 37 7l16 -43q-28 -14 -60 -14q-43 0 -68 25t-25 74v260h-103v49h103v339l58 7v-346h103v-49h-103z" />
    <glyph glyph-name="uni026C" unicode="&#x26c;" horiz-adv-x="328" 
d="M296 3q-30 -14 -60 -14q-43 0 -68 25t-25 74v178q-63 2 -96.5 27t-33.5 71q0 42 29 67t72 25q15 0 29 -2v282l58 7v-434q36 1 82 10l7 -39q-36 -8 -89 -12v-178q0 -51 42 -51q22 0 37 7zM143 309v104q-14 2 -26 2q-25 0 -39.5 -13t-14.5 -37q0 -56 80 -56z" />
    <glyph glyph-name="lcaron" unicode="&#x13e;" horiz-adv-x="284" 
d="M125.5 14q-24.5 25 -24.5 74v648l58 7v-653q0 -51 42 -51q21 0 36 7l16 -43q-28 -14 -60 -14q-43 0 -67.5 25zM293 736l-39 -164l-36 5l19 165z" />
    <glyph glyph-name="uni1E3D" unicode="&#x1e3d;" horiz-adv-x="284" 
d="M125.5 14q-24.5 25 -24.5 74v648l58 7v-653q0 -51 42 -51q21 0 36 7l16 -43q-28 -14 -60 -14q-43 0 -67.5 25zM31 -176l129 106h36l130 -106l-26 -30l-122 85l-121 -85z" />
    <glyph glyph-name="lcommaaccent" unicode="&#x13c;" horiz-adv-x="284" 
d="M125.5 14q-24.5 25 -24.5 74v648l58 7v-653q0 -51 42 -51q21 0 36 7l16 -43q-28 -14 -60 -14q-43 0 -67.5 25zM211.5 -97q12.5 -12 12.5 -30q0 -12 -4.5 -24.5t-17.5 -41.5l-40 -86h-36l32 114q-22 14 -22 38q0 18 12.5 30t31.5 12t31.5 -12z" />
    <glyph glyph-name="uni0234" unicode="&#x234;" horiz-adv-x="373" 
d="M371.5 176q27.5 -26 27.5 -67q0 -54 -42 -87t-107 -33q-46 0 -83 20l-37 -74l-41 17l44 85q-32 37 -32 95v604l58 7v-616q0 -17 3 -31q26 53 57.5 79.5t79.5 26.5q45 0 72.5 -26zM320.5 58q25.5 18 25.5 51q0 23 -13.5 35.5t-37.5 12.5q-33 0 -56.5 -23t-50.5 -80
q20 -14 62 -14q45 0 70.5 18z" />
    <glyph glyph-name="ldot" unicode="&#x140;" horiz-adv-x="301" 
d="M125.5 14q-24.5 25 -24.5 74v648l58 7v-653q0 -51 42 -51q21 0 36 7l16 -43q-28 -14 -60 -14q-43 0 -67.5 25zM310 406q12 -12 12 -30t-12 -30t-32 -12q-19 0 -31 12t-12 30t12 30t31 12q20 0 32 -12z" />
    <glyph glyph-name="uni1E37" unicode="&#x1e37;" horiz-adv-x="284" 
d="M125.5 14q-24.5 25 -24.5 74v648l58 7v-653q0 -51 42 -51q21 0 36 7l16 -43q-28 -14 -60 -14q-43 0 -67.5 25zM147 -158q-12 12 -12 30t12 30t32 12q19 0 31 -12t12 -30t-12 -30t-31 -12q-20 0 -32 12z" />
    <glyph glyph-name="uni026E" unicode="&#x26e;" horiz-adv-x="629" 
d="M596 2q0 -61 -27 -108t-77 -73t-117 -26q-59 0 -104 18.5t-83 56.5l33 33q35 -31 71 -45t81 -14q78 0 120 42t42 117q0 80 -43 115.5t-138 35.5h-64v46l214 273h-345v-383q0 -51 42 -51q21 0 36 7l16 -43q-28 -14 -60 -14q-43 0 -67.5 25t-24.5 74v648l58 7v-220h412v-45
l-219 -278h9q235 0 235 -198z" />
    <glyph glyph-name="uni026D" unicode="&#x26d;" horiz-adv-x="270" 
d="M333 -171q-44 -34 -102 -34q-57 0 -91 34t-34 100v807l58 7v-817q0 -83 69 -83q24 0 40.5 5.5t35.5 17.5z" />
    <glyph glyph-name="uni01C9" unicode="&#x1c9;" horiz-adv-x="564" 
d="M125.5 14q-24.5 25 -24.5 74v648l58 7v-653q0 -51 42 -51q21 0 36 7l16 -43q-28 -14 -60 -14q-43 0 -67.5 25zM458 19q0 -68 -15 -108.5t-44 -65t-82 -48.5l-17 42q38 19 58.5 37.5t31 51t10.5 89.5v506h58v-504zM460 741q12 -12 12 -30t-12 -30t-32 -12q-19 0 -31 12
t-12 30t12 30t31 12q20 0 32 -12z" />
    <glyph glyph-name="uni026B" unicode="&#x26b;" horiz-adv-x="333" 
d="M184 321v-231q0 -51 42 -51q22 0 37 7l16 -43q-28 -14 -60 -14q-43 0 -68 25t-25 74v265q-26 14 -43 14q-23 0 -39 -12t-32 -35l-37 20q22 36 47.5 56t63.5 20q19 0 40 -7v327l58 7v-364q18 -10 30.5 -15.5t24.5 -5.5q23 0 38 11t31 33l36 -20q-21 -34 -45.5 -53.5
t-62.5 -19.5q-25 0 -52 12z" />
    <glyph glyph-name="uni02AA" unicode="&#x2aa;" horiz-adv-x="645" 
d="M163.5 39q-62.5 50 -62.5 140v557l58 7v-565q0 -68 45.5 -103.5t136.5 -35.5q97 0 145.5 26t48.5 79q0 28 -10 47t-36 34t-76 29q-83 24 -115.5 56.5t-32.5 87.5q0 39 22 70.5t60 48.5t83 17q46 0 85 -14.5t77 -43.5l-27 -38q-36 25 -66.5 36.5t-67.5 11.5
q-45 0 -75 -23.5t-30 -63.5q0 -38 25 -59.5t91 -40.5q83 -23 118.5 -58t35.5 -94q0 -77 -67 -117.5t-188 -40.5q-115 0 -177.5 50z" />
    <glyph glyph-name="lslash" unicode="&#x142;" horiz-adv-x="299" 
d="M244 46l16 -43q-28 -14 -60 -14q-43 0 -67.5 25t-24.5 74v234l-58 -35l-23 38l81 50v361l58 7v-332l98 59l22 -39l-120 -73v-268q0 -51 41 -51q22 0 37 7z" />
    <glyph glyph-name="uni02AB" unicode="&#x2ab;" horiz-adv-x="631" 
d="M597 478l-296 -428h294l-6 -50h-343q-24 -11 -53 -11q-43 0 -67.5 25t-24.5 74v648l58 7v-653q0 -51 42 -51q21 0 36 7l293 427h-269v50h336v-45z" />
    <glyph glyph-name="m" unicode="m" horiz-adv-x="853" 
d="M715.5 491q36.5 -43 36.5 -117v-374h-58v366q0 62 -23.5 91.5t-65.5 29.5q-44 0 -79 -28t-68 -80v-379h-58v366q0 62 -23.5 91.5t-65.5 29.5q-45 0 -80 -28t-67 -80v-379h-58v523h50l5 -88q31 46 71.5 72.5t89.5 26.5q50 0 83.5 -27t45.5 -77q69 104 165 104
q63 0 99.5 -43z" />
    <glyph glyph-name="uni1E3F" unicode="&#x1e3f;" horiz-adv-x="853" 
d="M715.5 491q36.5 -43 36.5 -117v-374h-58v366q0 62 -23.5 91.5t-65.5 29.5q-44 0 -79 -28t-68 -80v-379h-58v366q0 62 -23.5 91.5t-65.5 29.5q-45 0 -80 -28t-67 -80v-379h-58v523h50l5 -88q31 46 71.5 72.5t89.5 26.5q50 0 83.5 -27t45.5 -77q69 104 165 104
q63 0 99.5 -43zM528 730l-195 -85l-19 34l188 103z" />
    <glyph glyph-name="uni1E41" unicode="&#x1e41;" horiz-adv-x="853" 
d="M715.5 491q36.5 -43 36.5 -117v-374h-58v366q0 62 -23.5 91.5t-65.5 29.5q-44 0 -79 -28t-68 -80v-379h-58v366q0 62 -23.5 91.5t-65.5 29.5q-45 0 -80 -28t-67 -80v-379h-58v523h50l5 -88q31 46 71.5 72.5t89.5 26.5q50 0 83.5 -27t45.5 -77q69 104 165 104
q63 0 99.5 -43zM458 741q12 -12 12 -30t-12 -30t-32 -12q-19 0 -31 12t-12 30t12 30t31 12q20 0 32 -12z" />
    <glyph glyph-name="uni0271" unicode="&#x271;" horiz-adv-x="853" 
d="M718 -171q-34 -34 -91 -34q-58 0 -102 34l24 37q19 -12 35.5 -17.5t40.5 -5.5q69 0 69 83v440q0 62 -23.5 91.5t-65.5 29.5q-44 0 -79 -28t-68 -80v-379h-58v366q0 62 -23.5 91.5t-65.5 29.5q-45 0 -80 -28t-67 -80v-379h-58v523h50l5 -88q31 46 71.5 72.5t89.5 26.5
q50 0 83.5 -27t45.5 -77q69 104 165 104q63 0 99.5 -43t36.5 -117v-445q0 -66 -34 -100z" />
    <glyph glyph-name="uni0270" unicode="&#x270;" horiz-adv-x="853" 
d="M747 -205l-58 8v281q-31 -45 -70.5 -70t-87.5 -25q-50 0 -84 27.5t-46 76.5q-31 -49 -72.5 -76.5t-91.5 -27.5q-63 0 -99.5 43t-36.5 117v374h58v-366q0 -62 23.5 -91.5t65.5 -29.5q44 0 79 28t68 80v379h58v-366q0 -62 23.5 -91.5t65.5 -29.5q45 0 80 28t67 80v379h58
v-728z" />
    <glyph glyph-name="uni026F" unicode="&#x26f;" horiz-adv-x="853" 
d="M747 523v-523h-50l-5 89q-30 -47 -71 -73.5t-90 -26.5q-50 0 -84 27.5t-46 76.5q-32 -49 -73 -76.5t-91 -27.5q-64 0 -100 43t-36 118v373h58v-365q0 -62 23.5 -92t65.5 -30q44 0 79 28t68 80v379h58v-365q0 -122 89 -122q44 0 79 28t68 80v379h58z" />
    <glyph glyph-name="n" unicode="n" horiz-adv-x="584" 
d="M445.5 492q37.5 -42 37.5 -118v-374h-58v366q0 63 -25 92t-74 29q-50 0 -88.5 -27.5t-73.5 -80.5v-379h-58v523h50l5 -89q71 100 176 100q71 0 108.5 -42z" />
    <glyph glyph-name="nacute" unicode="&#x144;" horiz-adv-x="584" 
d="M445.5 492q37.5 -42 37.5 -118v-374h-58v366q0 63 -25 92t-74 29q-50 0 -88.5 -27.5t-73.5 -80.5v-379h-58v523h50l5 -89q71 100 176 100q71 0 108.5 -42zM399 730l-195 -85l-19 34l188 103z" />
    <glyph glyph-name="nacute.loclPLK" horiz-adv-x="584" 
d="M445.5 492q37.5 -42 37.5 -118v-374h-58v366q0 63 -25 92t-74 29q-50 0 -88.5 -27.5t-73.5 -80.5v-379h-58v523h50l5 -89q71 100 176 100q71 0 108.5 -42zM408 731l-121 -153l-30 19l102 166z" />
    <glyph glyph-name="napostrophe" unicode="&#x149;" horiz-adv-x="667" 
d="M130 732.5q12 -12.5 12 -30.5q0 -10 -4.5 -22.5t-9.5 -25t-8 -18.5l-36 -89h-36l28 118q-22 12 -22 37q0 18 12.5 30.5t31.5 12.5q20 0 32 -12.5zM528.5 492.5q37.5 -41.5 37.5 -118.5v-374h-58v366q0 63 -24.5 92t-73.5 29q-51 0 -89.5 -27.5t-73.5 -80.5v-379h-58v523
h50l6 -89q32 47 76.5 73.5t98.5 26.5q71 0 108.5 -41.5z" />
    <glyph glyph-name="ncaron" unicode="&#x148;" horiz-adv-x="584" 
d="M445.5 492q37.5 -42 37.5 -118v-374h-58v366q0 63 -25 92t-74 29q-50 0 -88.5 -27.5t-73.5 -80.5v-379h-58v523h50l5 -89q71 100 176 100q71 0 108.5 -42zM445 739l-129 -106h-36l-130 106l26 30l122 -84l121 84z" />
    <glyph glyph-name="uni1E4B" unicode="&#x1e4b;" horiz-adv-x="584" 
d="M445.5 492q37.5 -42 37.5 -118v-374h-58v366q0 63 -25 92t-74 29q-50 0 -88.5 -27.5t-73.5 -80.5v-379h-58v523h50l5 -89q71 100 176 100q71 0 108.5 -42zM143 -176l129 106h36l130 -106l-26 -30l-122 85l-121 -85z" />
    <glyph glyph-name="ncommaaccent" unicode="&#x146;" horiz-adv-x="584" 
d="M445.5 492q37.5 -42 37.5 -118v-374h-58v366q0 63 -25 92t-74 29q-50 0 -88.5 -27.5t-73.5 -80.5v-379h-58v523h50l5 -89q71 100 176 100q71 0 108.5 -42zM323.5 -97q12.5 -12 12.5 -30q0 -12 -4.5 -24.5t-17.5 -41.5l-40 -86h-36l32 114q-22 14 -22 38q0 18 12.5 30
t31.5 12t31.5 -12z" />
    <glyph glyph-name="uni0235" unicode="&#x235;" horiz-adv-x="697" 
d="M695 176q27 -26 27 -67q0 -54 -41.5 -87t-106.5 -33q-46 0 -84 20l-36 -74l-41 17l43 85q-31 38 -31 95v234q0 63 -25 92t-74 29q-50 0 -88.5 -27.5t-73.5 -80.5v-379h-58v523h50l5 -89q71 100 176 100q71 0 108.5 -42t37.5 -118v-247q0 -17 3 -31q26 53 57.5 79.5
t79.5 26.5q45 0 72 -26zM644 58q25 18 25 51q0 23 -13 35.5t-37 12.5q-33 0 -56.5 -23t-50.5 -80q20 -14 62 -14q45 0 70 18z" />
    <glyph glyph-name="uni1E45" unicode="&#x1e45;" horiz-adv-x="584" 
d="M445.5 492q37.5 -42 37.5 -118v-374h-58v366q0 63 -25 92t-74 29q-50 0 -88.5 -27.5t-73.5 -80.5v-379h-58v523h50l5 -89q71 100 176 100q71 0 108.5 -42zM329 741q12 -12 12 -30t-12 -30t-32 -12q-19 0 -31 12t-12 30t12 30t31 12q20 0 32 -12z" />
    <glyph glyph-name="uni1E47" unicode="&#x1e47;" horiz-adv-x="584" 
d="M445.5 492q37.5 -42 37.5 -118v-374h-58v366q0 63 -25 92t-74 29q-50 0 -88.5 -27.5t-73.5 -80.5v-379h-58v523h50l5 -89q71 100 176 100q71 0 108.5 -42zM259 -158q-12 12 -12 30t12 30t32 12q19 0 31 -12t12 -30t-12 -30t-31 -12q-20 0 -32 12z" />
    <glyph glyph-name="uni01F9" unicode="&#x1f9;" horiz-adv-x="584" 
d="M445.5 492q37.5 -42 37.5 -118v-374h-58v366q0 63 -25 92t-74 29q-50 0 -88.5 -27.5t-73.5 -80.5v-379h-58v523h50l5 -89q71 100 176 100q71 0 108.5 -42zM409 679l-18 -34l-196 85l26 52z" />
    <glyph glyph-name="eng" unicode="&#x14b;" horiz-adv-x="584" 
d="M449 -171q-34 -34 -91 -34q-58 0 -102 34l24 37q19 -12 35.5 -17.5t40.5 -5.5q69 0 69 83v440q0 63 -25 92t-74 29q-50 0 -88.5 -27.5t-73.5 -80.5v-379h-58v523h50l5 -89q71 100 176 100q71 0 108.5 -42t37.5 -118v-445q0 -66 -34 -100z" />
    <glyph glyph-name="uni0272" unicode="&#x272;" horiz-adv-x="584" 
d="M445.5 492q37.5 -42 37.5 -118v-374h-58v366q0 63 -25 92t-74 29q-50 0 -88.5 -27.5t-73.5 -80.5v-450q0 -66 -34 -100t-91 -34q-58 0 -102 34l24 37q19 -12 35.5 -17.5t40.5 -5.5q69 0 69 83v597h50l5 -89q71 100 176 100q71 0 108.5 -42z" />
    <glyph glyph-name="uni0273" unicode="&#x273;" horiz-adv-x="584" 
d="M652 -171q-44 -34 -102 -34q-57 0 -91 34t-34 100v437q0 63 -25 92t-74 29q-50 0 -88.5 -27.5t-73.5 -80.5v-379h-58v523h50l5 -89q71 100 176 100q71 0 108.5 -42t37.5 -118v-448q0 -83 69 -83q24 0 40.5 5.5t35.5 17.5z" />
    <glyph glyph-name="uni01CC" unicode="&#x1cc;" horiz-adv-x="854" 
d="M445.5 492q37.5 -42 37.5 -118v-374h-58v366q0 63 -25 92t-74 29q-50 0 -88.5 -27.5t-73.5 -80.5v-379h-58v523h50l5 -89q71 100 176 100q71 0 108.5 -42zM748 19q0 -68 -15 -108.5t-44 -65t-82 -48.5l-17 42q38 19 58.5 37.5t31 51t10.5 89.5v506h58v-504zM750 741
q12 -12 12 -30t-12 -30t-32 -12q-19 0 -31 12t-12 30t12 30t31 12q20 0 32 -12z" />
    <glyph glyph-name="uni019E" unicode="&#x19e;" horiz-adv-x="584" 
d="M445.5 492q37.5 -42 37.5 -118v-579l-58 8v563q0 63 -25 92t-74 29q-50 0 -88.5 -27.5t-73.5 -80.5v-379h-58v523h50l5 -89q71 100 176 100q71 0 108.5 -42z" />
    <glyph glyph-name="ntilde" unicode="&#xf1;" horiz-adv-x="584" 
d="M445.5 492q37.5 -42 37.5 -118v-374h-58v366q0 63 -25 92t-74 29q-50 0 -88.5 -27.5t-73.5 -80.5v-379h-58v523h50l5 -89q71 100 176 100q71 0 108.5 -42zM323 672.5q-15 6.5 -37 19.5q-16 10 -26.5 15t-20.5 5q-17 0 -29.5 -9.5t-26.5 -30.5l-36 18q37 68 92 68
q17 0 31.5 -6t32.5 -18q18 -11 29 -16t24 -5q16 0 28.5 10t27.5 33l36 -18q-35 -72 -92 -72q-18 0 -33 6.5z" />
    <glyph glyph-name="o" unicode="o" horiz-adv-x="571" 
d="M448.5 462.5q58.5 -71.5 58.5 -199.5q0 -127 -59.5 -200.5t-162.5 -73.5q-104 0 -162.5 72.5t-58.5 199.5q0 83 27 145t77 95t118 33q104 0 162.5 -71.5zM168 428q-42 -57 -42 -167q0 -109 41.5 -166t117.5 -57t118.5 57t42.5 168q0 109 -41.5 165.5t-118.5 56.5
q-76 0 -118 -57z" />
    <glyph glyph-name="oacute" unicode="&#xf3;" horiz-adv-x="571" 
d="M448.5 462.5q58.5 -71.5 58.5 -199.5q0 -127 -59.5 -200.5t-162.5 -73.5q-104 0 -162.5 72.5t-58.5 199.5q0 83 27 145t77 95t118 33q104 0 162.5 -71.5zM168 428q-42 -57 -42 -167q0 -109 41.5 -166t117.5 -57t118.5 57t42.5 168q0 109 -41.5 165.5t-118.5 56.5
q-76 0 -118 -57zM387 730l-195 -85l-19 34l188 103z" />
    <glyph glyph-name="oacute.loclPLK" horiz-adv-x="571" 
d="M448.5 462.5q58.5 -71.5 58.5 -199.5q0 -127 -59.5 -200.5t-162.5 -73.5q-104 0 -162.5 72.5t-58.5 199.5q0 83 27 145t77 95t118 33q104 0 162.5 -71.5zM168 428q-42 -57 -42 -167q0 -109 41.5 -166t117.5 -57t118.5 57t42.5 168q0 109 -41.5 165.5t-118.5 56.5
q-76 0 -118 -57zM397 731l-121 -153l-30 19l102 166z" />
    <glyph glyph-name="uni0275" unicode="&#x275;" horiz-adv-x="571" 
d="M448.5 462.5q58.5 -71.5 58.5 -199.5q0 -127 -59.5 -200.5t-162.5 -73.5q-104 0 -162.5 72.5t-58.5 199.5q0 83 27 145t77 95t118 33q104 0 162.5 -71.5zM173.5 435.5q-41.5 -49.5 -47.5 -146.5h319q-4 96 -45.5 146t-113.5 50q-71 0 -112.5 -49.5zM400 89.5
q42 51.5 46 152.5h-320q4 -100 45 -152t114 -52t115 51.5z" />
    <glyph glyph-name="obreve" unicode="&#x14f;" horiz-adv-x="571" 
d="M448.5 462.5q58.5 -71.5 58.5 -199.5q0 -127 -59.5 -200.5t-162.5 -73.5q-104 0 -162.5 72.5t-58.5 199.5q0 83 27 145t77 95t118 33q104 0 162.5 -71.5zM168 428q-42 -57 -42 -167q0 -109 41.5 -166t117.5 -57t118.5 57t42.5 168q0 109 -41.5 165.5t-118.5 56.5
q-76 0 -118 -57zM197.5 683q-35.5 30 -42.5 80l40 9q20 -72 90 -72q71 0 91 72l40 -9q-7 -50 -43 -80t-88 -30t-87.5 30z" />
    <glyph glyph-name="uni01D2" unicode="&#x1d2;" horiz-adv-x="571" 
d="M448.5 462.5q58.5 -71.5 58.5 -199.5q0 -127 -59.5 -200.5t-162.5 -73.5q-104 0 -162.5 72.5t-58.5 199.5q0 83 27 145t77 95t118 33q104 0 162.5 -71.5zM168 428q-42 -57 -42 -167q0 -109 41.5 -166t117.5 -57t118.5 57t42.5 168q0 109 -41.5 165.5t-118.5 56.5
q-76 0 -118 -57zM433 739l-129 -106h-36l-130 106l26 30l122 -84l121 84z" />
    <glyph glyph-name="ocircumflex" unicode="&#xf4;" horiz-adv-x="571" 
d="M448.5 462.5q58.5 -71.5 58.5 -199.5q0 -127 -59.5 -200.5t-162.5 -73.5q-104 0 -162.5 72.5t-58.5 199.5q0 83 27 145t77 95t118 33q104 0 162.5 -71.5zM168 428q-42 -57 -42 -167q0 -109 41.5 -166t117.5 -57t118.5 57t42.5 168q0 109 -41.5 165.5t-118.5 56.5
q-76 0 -118 -57zM138 674l129 105h36l130 -105l-26 -31l-122 85l-121 -85z" />
    <glyph glyph-name="uni1ED1" unicode="&#x1ed1;" horiz-adv-x="571" 
d="M520 813l-121 -120l-26 24l108 132zM284 667l-122 -80l-26 30l130 102h36l129 -102l-26 -30zM448.5 462.5q58.5 -71.5 58.5 -199.5q0 -127 -59.5 -200.5t-162.5 -73.5q-104 0 -162.5 72.5t-58.5 199.5q0 83 27 145t77 95t118 33q104 0 162.5 -71.5zM168 428
q-42 -57 -42 -167q0 -109 41.5 -166t117.5 -57t118.5 57t42.5 168q0 109 -41.5 165.5t-118.5 56.5q-76 0 -118 -57z" />
    <glyph glyph-name="uni1ED9" unicode="&#x1ed9;" horiz-adv-x="571" 
d="M448.5 462.5q58.5 -71.5 58.5 -199.5q0 -127 -59.5 -200.5t-162.5 -73.5q-104 0 -162.5 72.5t-58.5 199.5q0 83 27 145t77 95t118 33q104 0 162.5 -71.5zM168 428q-42 -57 -42 -167q0 -109 41.5 -166t117.5 -57t118.5 57t42.5 168q0 109 -41.5 165.5t-118.5 56.5
q-76 0 -118 -57zM138 674l129 105h36l130 -105l-26 -31l-122 85l-121 -85zM254 -158q-12 12 -12 30t12 30t32 12q19 0 31 -12t12 -30t-12 -30t-31 -12q-20 0 -32 12z" />
    <glyph glyph-name="uni1ED3" unicode="&#x1ed3;" horiz-adv-x="571" 
d="M199 717l-26 -24l-120 120l38 36zM284 667l-122 -80l-26 30l130 102h36l129 -102l-26 -30zM448.5 462.5q58.5 -71.5 58.5 -199.5q0 -127 -59.5 -200.5t-162.5 -73.5q-104 0 -162.5 72.5t-58.5 199.5q0 83 27 145t77 95t118 33q104 0 162.5 -71.5zM168 428
q-42 -57 -42 -167q0 -109 41.5 -166t117.5 -57t118.5 57t42.5 168q0 109 -41.5 165.5t-118.5 56.5q-76 0 -118 -57z" />
    <glyph glyph-name="uni1ED5" unicode="&#x1ed5;" horiz-adv-x="571" 
d="M386 773q35 2 52.5 12t17.5 34q0 20 -12.5 30.5t-34.5 10.5q-31 0 -58 -15l-16 36q37 22 81 22q43 0 68 -22t25 -58q0 -34 -19.5 -53t-55.5 -24v-57h-48v84zM284 667l-122 -80l-26 30l130 102h36l129 -102l-26 -30zM448.5 462.5q58.5 -71.5 58.5 -199.5
q0 -127 -59.5 -200.5t-162.5 -73.5q-104 0 -162.5 72.5t-58.5 199.5q0 83 27 145t77 95t118 33q104 0 162.5 -71.5zM168 428q-42 -57 -42 -167q0 -109 41.5 -166t117.5 -57t118.5 57t42.5 168q0 109 -41.5 165.5t-118.5 56.5q-76 0 -118 -57z" />
    <glyph glyph-name="uni1ED7" unicode="&#x1ed7;" horiz-adv-x="571" 
d="M310 752.5q-15 6.5 -37 19.5q-16 10 -26.5 15t-20.5 5q-17 0 -29.5 -9.5t-26.5 -30.5l-36 18q37 68 92 68q17 0 31.5 -6t32.5 -18q18 -11 29 -16t24 -5q16 0 28.5 10t27.5 33l36 -18q-35 -72 -92 -72q-18 0 -33 6.5zM284 657l-122 -80l-26 30l130 102h36l129 -102
l-26 -30zM448.5 462.5q58.5 -71.5 58.5 -199.5q0 -127 -59.5 -200.5t-162.5 -73.5q-104 0 -162.5 72.5t-58.5 199.5q0 83 27 145t77 95t118 33q104 0 162.5 -71.5zM168 428q-42 -57 -42 -167q0 -109 41.5 -166t117.5 -57t118.5 57t42.5 168q0 109 -41.5 165.5t-118.5 56.5
q-76 0 -118 -57z" />
    <glyph glyph-name="uni020D" unicode="&#x20d;" horiz-adv-x="571" 
d="M448.5 462.5q58.5 -71.5 58.5 -199.5q0 -127 -59.5 -200.5t-162.5 -73.5q-104 0 -162.5 72.5t-58.5 199.5q0 83 27 145t77 95t118 33q104 0 162.5 -71.5zM168 428q-42 -57 -42 -167q0 -109 41.5 -166t117.5 -57t118.5 57t42.5 168q0 109 -41.5 165.5t-118.5 56.5
q-76 0 -118 -57zM256 660l-38 -18l-93 142l52 27zM377 664l-38 -17l-84 136l52 28z" />
    <glyph glyph-name="odieresis" unicode="&#xf6;" horiz-adv-x="571" 
d="M448.5 462.5q58.5 -71.5 58.5 -199.5q0 -127 -59.5 -200.5t-162.5 -73.5q-104 0 -162.5 72.5t-58.5 199.5q0 83 27 145t77 95t118 33q104 0 162.5 -71.5zM168 428q-42 -57 -42 -167q0 -109 41.5 -166t117.5 -57t118.5 57t42.5 168q0 109 -41.5 165.5t-118.5 56.5
q-76 0 -118 -57zM219.5 730.5q11.5 -11.5 11.5 -28.5t-11.5 -28t-28.5 -11t-28.5 11t-11.5 28t11.5 28.5t28.5 11.5t28.5 -11.5zM408.5 730.5q11.5 -11.5 11.5 -28.5t-11.5 -28t-28.5 -11t-28.5 11t-11.5 28t11.5 28.5t28.5 11.5t28.5 -11.5z" />
    <glyph glyph-name="uni022B" unicode="&#x22b;" horiz-adv-x="571" 
d="M167 773v47h241v-47h-241zM219.5 700.5q11.5 -11.5 11.5 -28.5t-11.5 -28t-28.5 -11t-28.5 11t-11.5 28t11.5 28.5t28.5 11.5t28.5 -11.5zM408.5 700.5q11.5 -11.5 11.5 -28.5t-11.5 -28t-28.5 -11t-28.5 11t-11.5 28t11.5 28.5t28.5 11.5t28.5 -11.5zM448.5 462.5
q58.5 -71.5 58.5 -199.5q0 -127 -59.5 -200.5t-162.5 -73.5q-104 0 -162.5 72.5t-58.5 199.5q0 83 27 145t77 95t118 33q104 0 162.5 -71.5zM168 428q-42 -57 -42 -167q0 -109 41.5 -166t117.5 -57t118.5 57t42.5 168q0 109 -41.5 165.5t-118.5 56.5q-76 0 -118 -57z" />
    <glyph glyph-name="uni022F" unicode="&#x22f;" horiz-adv-x="571" 
d="M448.5 462.5q58.5 -71.5 58.5 -199.5q0 -127 -59.5 -200.5t-162.5 -73.5q-104 0 -162.5 72.5t-58.5 199.5q0 83 27 145t77 95t118 33q104 0 162.5 -71.5zM168 428q-42 -57 -42 -167q0 -109 41.5 -166t117.5 -57t118.5 57t42.5 168q0 109 -41.5 165.5t-118.5 56.5
q-76 0 -118 -57zM317 741q12 -12 12 -30t-12 -30t-32 -12q-19 0 -31 12t-12 30t12 30t31 12q20 0 32 -12z" />
    <glyph glyph-name="uni0231" unicode="&#x231;" horiz-adv-x="571" 
d="M168 757v47h241v-47h-241zM319 691q12 -12 12 -30t-12 -30t-32 -12q-19 0 -31 12t-12 30t12 30t31 12q20 0 32 -12zM448.5 462.5q58.5 -71.5 58.5 -199.5q0 -127 -59.5 -200.5t-162.5 -73.5q-104 0 -162.5 72.5t-58.5 199.5q0 83 27 145t77 95t118 33q104 0 162.5 -71.5z
M168 428q-42 -57 -42 -167q0 -109 41.5 -166t117.5 -57t118.5 57t42.5 168q0 109 -41.5 165.5t-118.5 56.5q-76 0 -118 -57z" />
    <glyph glyph-name="uni1ECD" unicode="&#x1ecd;" horiz-adv-x="571" 
d="M448.5 462.5q58.5 -71.5 58.5 -199.5q0 -127 -59.5 -200.5t-162.5 -73.5q-104 0 -162.5 72.5t-58.5 199.5q0 83 27 145t77 95t118 33q104 0 162.5 -71.5zM168 428q-42 -57 -42 -167q0 -109 41.5 -166t117.5 -57t118.5 57t42.5 168q0 109 -41.5 165.5t-118.5 56.5
q-76 0 -118 -57zM254 -158q-12 12 -12 30t12 30t32 12q19 0 31 -12t12 -30t-12 -30t-31 -12q-20 0 -32 12z" />
    <glyph glyph-name="ograve" unicode="&#xf2;" horiz-adv-x="571" 
d="M448.5 462.5q58.5 -71.5 58.5 -199.5q0 -127 -59.5 -200.5t-162.5 -73.5q-104 0 -162.5 72.5t-58.5 199.5q0 83 27 145t77 95t118 33q104 0 162.5 -71.5zM168 428q-42 -57 -42 -167q0 -109 41.5 -166t117.5 -57t118.5 57t42.5 168q0 109 -41.5 165.5t-118.5 56.5
q-76 0 -118 -57zM397 679l-18 -34l-196 85l26 52z" />
    <glyph glyph-name="uni1ECF" unicode="&#x1ecf;" horiz-adv-x="571" 
d="M448.5 462.5q58.5 -71.5 58.5 -199.5q0 -127 -59.5 -200.5t-162.5 -73.5q-104 0 -162.5 72.5t-58.5 199.5q0 83 27 145t77 95t118 33q104 0 162.5 -71.5zM168 428q-42 -57 -42 -167q0 -109 41.5 -166t117.5 -57t118.5 57t42.5 168q0 109 -41.5 165.5t-118.5 56.5
q-76 0 -118 -57zM259 700q35 2 52.5 12t17.5 34q0 20 -12.5 30.5t-34.5 10.5q-31 0 -58 -15l-16 36q37 22 81 22q43 0 68 -22t25 -58q0 -34 -19.5 -53t-55.5 -24v-57h-48v84z" />
    <glyph glyph-name="ohorn" unicode="&#x1a1;" horiz-adv-x="580" 
d="M470 431q37 -66 37 -168q0 -127 -59.5 -200.5t-162.5 -73.5q-104 0 -162.5 72.5t-58.5 199.5q0 83 27 145t77 95t118 33q103 0 160 -69q31 4 45 18.5t14 40.5q0 37 -14 72l46 12q18 -34 18 -82q0 -80 -85 -95zM403.5 95q42.5 57 42.5 168q0 109 -41.5 165.5t-118.5 56.5
q-76 0 -118 -57t-42 -167q0 -109 41.5 -166t117.5 -57t118.5 57z" />
    <glyph glyph-name="uni1EDB" unicode="&#x1edb;" horiz-adv-x="580" 
d="M192 645l-19 34l188 103l26 -52zM470 431q37 -66 37 -168q0 -127 -59.5 -200.5t-162.5 -73.5q-104 0 -162.5 72.5t-58.5 199.5q0 83 27 145t77 95t118 33q103 0 160 -69q31 4 45 18.5t14 40.5q0 37 -14 72l46 12q18 -34 18 -82q0 -80 -85 -95zM403.5 95q42.5 57 42.5 168
q0 109 -41.5 165.5t-118.5 56.5q-76 0 -118 -57t-42 -167q0 -109 41.5 -166t117.5 -57t118.5 57z" />
    <glyph glyph-name="uni1EE3" unicode="&#x1ee3;" horiz-adv-x="580" 
d="M470 431q37 -66 37 -168q0 -127 -59.5 -200.5t-162.5 -73.5q-104 0 -162.5 72.5t-58.5 199.5q0 83 27 145t77 95t118 33q103 0 160 -69q31 4 45 18.5t14 40.5q0 37 -14 72l46 12q18 -34 18 -82q0 -80 -85 -95zM403.5 95q42.5 57 42.5 168q0 109 -41.5 165.5t-118.5 56.5
q-76 0 -118 -57t-42 -167q0 -109 41.5 -166t117.5 -57t118.5 57zM317 -98q12 -12 12 -30t-12 -30t-31 -12q-20 0 -32 12t-12 30t12 30t32 12q19 0 31 -12z" />
    <glyph glyph-name="uni1EDD" unicode="&#x1edd;" horiz-adv-x="580" 
d="M379 645l-196 85l26 52l188 -103zM470 431q37 -66 37 -168q0 -127 -59.5 -200.5t-162.5 -73.5q-104 0 -162.5 72.5t-58.5 199.5q0 83 27 145t77 95t118 33q103 0 160 -69q31 4 45 18.5t14 40.5q0 37 -14 72l46 12q18 -34 18 -82q0 -80 -85 -95zM403.5 95
q42.5 57 42.5 168q0 109 -41.5 165.5t-118.5 56.5q-76 0 -118 -57t-42 -167q0 -109 41.5 -166t117.5 -57t118.5 57z" />
    <glyph glyph-name="uni1EDF" unicode="&#x1edf;" horiz-adv-x="580" 
d="M224 772l-16 36q37 22 81 22q43 0 68 -22t25 -58q0 -34 -19.5 -53t-55.5 -24v-57h-48v84q35 2 52.5 12t17.5 34q0 20 -12.5 30.5t-34.5 10.5q-31 0 -58 -15zM470 431q37 -66 37 -168q0 -127 -59.5 -200.5t-162.5 -73.5q-104 0 -162.5 72.5t-58.5 199.5q0 83 27 145t77 95
t118 33q103 0 160 -69q31 4 45 18.5t14 40.5q0 37 -14 72l46 12q18 -34 18 -82q0 -80 -85 -95zM403.5 95q42.5 57 42.5 168q0 109 -41.5 165.5t-118.5 56.5q-76 0 -118 -57t-42 -167q0 -109 41.5 -166t117.5 -57t118.5 57z" />
    <glyph glyph-name="uni1EE1" unicode="&#x1ee1;" horiz-adv-x="580" 
d="M197.5 702.5q-12.5 -9.5 -26.5 -30.5l-36 18q37 68 92 68q17 0 31.5 -6t32.5 -18q18 -11 29 -16t24 -5q16 0 28.5 10t27.5 33l36 -18q-35 -72 -92 -72q-18 0 -33 6.5t-37 19.5q-16 10 -26.5 15t-20.5 5q-17 0 -29.5 -9.5zM470 431q37 -66 37 -168q0 -127 -59.5 -200.5
t-162.5 -73.5q-104 0 -162.5 72.5t-58.5 199.5q0 83 27 145t77 95t118 33q103 0 160 -69q31 4 45 18.5t14 40.5q0 37 -14 72l46 12q18 -34 18 -82q0 -80 -85 -95zM403.5 95q42.5 57 42.5 168q0 109 -41.5 165.5t-118.5 56.5q-76 0 -118 -57t-42 -167q0 -109 41.5 -166
t117.5 -57t118.5 57z" />
    <glyph glyph-name="ohungarumlaut" unicode="&#x151;" horiz-adv-x="571" 
d="M448.5 462.5q58.5 -71.5 58.5 -199.5q0 -127 -59.5 -200.5t-162.5 -73.5q-104 0 -162.5 72.5t-58.5 199.5q0 83 27 145t77 95t118 33q104 0 162.5 -71.5zM168 428q-42 -57 -42 -167q0 -109 41.5 -166t117.5 -57t118.5 57t42.5 168q0 109 -41.5 165.5t-118.5 56.5
q-76 0 -118 -57zM453 784l-93 -142l-38 18l79 151zM324 783l-85 -136l-38 17l71 147z" />
    <glyph glyph-name="uni01A3" unicode="&#x1a3;" horiz-adv-x="766" 
d="M624.5 497q35.5 -37 35.5 -108v-594l-58 8v587q0 96 -85 96q-39 0 -77 -15q33 -35 50 -87.5t17 -120.5q0 -127 -59.5 -200.5t-162.5 -73.5q-104 0 -162.5 72.5t-58.5 199.5q0 83 27 145t77 95t118 33q65 0 116 -31q57 31 120 31q67 0 102.5 -37zM403.5 95
q42.5 57 42.5 168q0 109 -41.5 165.5t-118.5 56.5q-76 0 -118 -57t-42 -167q0 -109 41.5 -166t117.5 -57t118.5 57z" />
    <glyph glyph-name="uni020F" unicode="&#x20f;" horiz-adv-x="571" 
d="M448.5 462.5q58.5 -71.5 58.5 -199.5q0 -127 -59.5 -200.5t-162.5 -73.5q-104 0 -162.5 72.5t-58.5 199.5q0 83 27 145t77 95t118 33q104 0 162.5 -71.5zM168 428q-42 -57 -42 -167q0 -109 41.5 -166t117.5 -57t118.5 57t42.5 168q0 109 -41.5 165.5t-118.5 56.5
q-76 0 -118 -57zM373 712q36 -30 43 -80l-40 -9q-20 72 -91 72q-70 0 -90 -72l-40 9q7 50 42.5 80t87.5 30t88 -30z" />
    <glyph glyph-name="omacron" unicode="&#x14d;" horiz-adv-x="571" 
d="M448.5 462.5q58.5 -71.5 58.5 -199.5q0 -127 -59.5 -200.5t-162.5 -73.5q-104 0 -162.5 72.5t-58.5 199.5q0 83 27 145t77 95t118 33q104 0 162.5 -71.5zM168 428q-42 -57 -42 -167q0 -109 41.5 -166t117.5 -57t118.5 57t42.5 168q0 109 -41.5 165.5t-118.5 56.5
q-76 0 -118 -57zM165 676v47h241v-47h-241z" />
    <glyph glyph-name="uni1E53" unicode="&#x1e53;" horiz-adv-x="571" 
d="M394 798l-198 -78l-16 34l187 96zM165 621v47h241v-47h-241zM448.5 462.5q58.5 -71.5 58.5 -199.5q0 -127 -59.5 -200.5t-162.5 -73.5q-104 0 -162.5 72.5t-58.5 199.5q0 83 27 145t77 95t118 33q104 0 162.5 -71.5zM168 428q-42 -57 -42 -167q0 -109 41.5 -166
t117.5 -57t118.5 57t42.5 168q0 109 -41.5 165.5t-118.5 56.5q-76 0 -118 -57z" />
    <glyph glyph-name="uni1E51" unicode="&#x1e51;" horiz-adv-x="571" 
d="M390 754l-16 -34l-198 78l26 52zM165 621v47h241v-47h-241zM448.5 462.5q58.5 -71.5 58.5 -199.5q0 -127 -59.5 -200.5t-162.5 -73.5q-104 0 -162.5 72.5t-58.5 199.5q0 83 27 145t77 95t118 33q104 0 162.5 -71.5zM168 428q-42 -57 -42 -167q0 -109 41.5 -166t117.5 -57
t118.5 57t42.5 168q0 109 -41.5 165.5t-118.5 56.5q-76 0 -118 -57z" />
    <glyph glyph-name="uni0277" unicode="&#x277;" horiz-adv-x="750" 
d="M608.5 454.5q77.5 -79.5 77.5 -217.5q0 -131 -50 -189.5t-126 -58.5q-56 0 -91.5 30t-43.5 90q-22 -120 -139 -120q-78 0 -125 61t-47 188q0 137 78.5 216.5t233.5 79.5t232.5 -79.5zM627 236q0 120 -61 185t-190 65t-191 -65t-62 -185q0 -105 32 -151.5t87 -46.5
q48 0 76 32t28 109v129l57 8v-137q0 -75 27.5 -108t73.5 -33q123 0 123 198z" />
    <glyph glyph-name="uni01EB" unicode="&#x1eb;" horiz-adv-x="571" 
d="M262.5 -56.5q-27.5 -26.5 -27.5 -61.5q0 -24 15 -38t47 -14q27 0 59 7l-6 -48q-35 -7 -58 -7q-53 0 -82 25.5t-29 66.5q0 69 83 116q-94 7 -147 79t-53 192q0 83 27 145t77 95t118 33q104 0 162.5 -71.5t58.5 -199.5q0 -102 -39.5 -171t-110.5 -92q-67 -30 -94.5 -56.5z
M167.5 95q41.5 -57 117.5 -57t118.5 57t42.5 168q0 109 -41.5 165.5t-118.5 56.5q-76 0 -118 -57t-42 -167q0 -109 41.5 -166z" />
    <glyph glyph-name="uni01ED" unicode="&#x1ed;" horiz-adv-x="571" 
d="M406 676h-241v47h241v-47zM262.5 -56.5q-27.5 -26.5 -27.5 -61.5q0 -24 15 -38t47 -14q27 0 59 7l-6 -48q-35 -7 -58 -7q-53 0 -82 25.5t-29 66.5q0 69 83 116q-94 7 -147 79t-53 192q0 83 27 145t77 95t118 33q104 0 162.5 -71.5t58.5 -199.5q0 -102 -39.5 -171
t-110.5 -92q-67 -30 -94.5 -56.5zM167.5 95q41.5 -57 117.5 -57t118.5 57t42.5 168q0 109 -41.5 165.5t-118.5 56.5q-76 0 -118 -57t-42 -167q0 -109 41.5 -166z" />
    <glyph glyph-name="uni0254" unicode="&#x254;" horiz-adv-x="470" 
d="M33 47l29 37q29 -23 58 -34.5t68 -11.5q74 0 115 57.5t41 167.5q0 109 -39 165.5t-112 56.5q-38 0 -67 -10t-61 -33l-28 37q67 55 157 55q99 0 155.5 -71.5t56.5 -199.5q0 -84 -26.5 -145.5t-76 -95t-115.5 -33.5q-89 0 -155 58z" />
    <glyph glyph-name="oslash" unicode="&#xf8;" horiz-adv-x="571" 
d="M478.5 414.5q28.5 -62.5 28.5 -151.5q0 -127 -59.5 -200.5t-162.5 -73.5q-31 0 -61 8l-41 -122l-49 14l43 127q-54 31 -83.5 94t-29.5 151q0 83 27 145t77 95t118 33q33 0 63 -8l39 122l49 -14l-41 -127q54 -30 82.5 -92.5zM199 62l138 417q-22 6 -51 6q-76 0 -118 -57
t-42 -167q0 -151 73 -199zM403.5 95q42.5 57 42.5 168q0 149 -72 198l-138 -417q23 -6 49 -6q76 0 118.5 57z" />
    <glyph glyph-name="oslashacute" unicode="&#x1ff;" horiz-adv-x="571" 
d="M478.5 414.5q28.5 -62.5 28.5 -151.5q0 -127 -59.5 -200.5t-162.5 -73.5q-31 0 -61 8l-41 -122l-49 14l43 127q-54 31 -83.5 94t-29.5 151q0 83 27 145t77 95t118 33q33 0 63 -8l39 122l49 -14l-41 -127q54 -30 82.5 -92.5zM199 62l138 417q-22 6 -51 6q-76 0 -118 -57
t-42 -167q0 -151 73 -199zM403.5 95q42.5 57 42.5 168q0 149 -72 198l-138 -417q23 -6 49 -6q76 0 118.5 57zM387 730l-195 -85l-19 34l188 103z" />
    </font>
</defs>
</svg>
